Ссылка на приватное зеркало нашего сайта всего за 1$. Внимание количество ограничено!!!

2 сезон

iTunes

1 сезон

1

2 сезон

2 сезон

iTunes

1 сезон

RePack

30

Ultimate

ВАЖНО

ИГРА 18+

pack

RePack

MK11
pack

Забери бонус

RePack

jed

!!Акция!!

Alien_Rage

RePack

fifa19

RePack

Assassins Creed: Odyssey

RePack

NEED FOR SPEED™ PAYBACK

4 сезон

9 сезон

Бесстыжие 9 сезон

Все сериалы

все сериалы на PB.wtf

RePack

FAR CRY 5
  

Ганнибал / Hannibal / Сезон: 1 / Серии: 1 - 11 из 13 (Гильермо Наварро, Майкл Раймер, Дэвид Слэйд) [2013 г., детектив, криминал, драма, WEB-DLRip, MVO, Sony Sci-Fi] pb.wtf

Ганнибал через торрент pb.wtf

Размер: 5.37 GB | Добавлен: 7 лет 5 мес. назад | Торрент скачан:352 раза
Скачать  

14-04-2013 02:13 Ганнибал Скачать торрент  

Ганнибал / Hannibal
Год выпуска: 2013
Страна: США
Жанр: детектив, криминал, драма,
Продолжительность: 43 мин.
Перевод: Профессиональный многоголосый, Sony Sci-Fi

Режиссер: Гильермо Наварро Майкл Раймер Дэвид Слэйд
Продюссер: Майкл Кесслер, Тим Кинг, Лоретта Рамос
Сценарий: Брайан Фуллер, Томас Харрис

Мировой рейтинг IMDB 8.40 (3 746)


В ролях: Мадс Миккельсен, Хью Дэнси, Каролин Давернас, Лара Жан Чоростецки, Аарон Абрамс, Лоренс Фишбёрн, Эттьенн Парк, Скотт Томпсон, Торианна Ли, Демор Барнс,

Описание: Уилл Грэхэм — одаренный профайлер, который вместе с ФБР разыскивает серийного убийцу. Уникальный способ мышления Грэма дает ему удивительную способность глубоко проникаться чувствами другого человека, даже психопата. Он может понять, что ими движет. Но когда ум преследуемого убийцы оказывается слишком сложным, он прибегает к помощи доктора Лектера, одного из ведущих психиатрических умов в стране.

Качество: WEB-DLRip
Формат: AVI
Видео кодек: XviD
Аудио кодек: MP3
Видео: 720x400, 23.976 fps, ~1350 kbps, 0.195 bit/pixel
Аудио#1: 48 kHz, 2 ch, ~128 kbps
Аудио#2: 48 kHz, 2 ch, ~128 kbps
Релиз от: NewStudio

Общее
Полное имя : I:Hannibal.s01.Sony.Sci-FiHannibal.s01e01.WEBDLRip.NewStudio.TV.avi
Формат : AVI
Формат/Информация : Audio Video Interleave
Размер файла : 500 Мбайт
Продолжительность : 42 м.
Общий поток : 1627 Кбит/сек
Программа кодирования : VirtualDubMod 1.5.10.2 (build 2540/release)
Библиотека кодирования : VirtualDubMod build 2540/release
Видео
Идентификатор : 0
Формат : MPEG-4 Visual
Профиль формата : Advanced Simple@L5
Параметр BVOP формата : 2
Параметр QPel формата : Нет
Параметр GMC формата : Без точки перехода
Параметр матрицы формата : Default (MPEG)
Идентификатор кодека : XVID
Идентификатор кодека/Подсказка : XviD
Продолжительность : 42 м.
Битрейт : 1357 Кбит/сек
Ширина : 720 пикселей
Высота : 400 пикселей
Соотношение сторон : 16:9
Частота кадров : 23,976 кадра/сек
Цветовое пространство : YUV
Субдискретизация насыщенности : 4:2:0
Битовая глубина : 8 бит
Тип развёртки : Прогрессивная
Метод сжатия : С потерями
Бит/(Пиксели*Кадры) : 0.197
Размер потока : 417 Мбайт (83%)
Библиотека кодирования : XviD 64
Аудио #1
Идентификатор : 1
Формат : MPEG Audio
Версия формата : Version 1
Профиль формата : Layer 3
Режим : Joint stereo
Расширение режима : MS Stereo
Идентификатор кодека : 55
Идентификатор кодека/Подсказка : MP3
Продолжительность : 42 м.
Вид битрейта : Постоянный
Битрейт : 128 Кбит/сек
Каналы : 2 канала
Частота : 48,0 КГц
Метод сжатия : С потерями
Размер потока : 39,3 Мбайт (8%)
Выравнивание : Соединение по промежуткам
Продолжительность промежутка : 42 мс. (1,00 видеокадр)
Время предзагрузки промежутка : 504 мс.
Аудио #2
Идентификатор : 2
Формат : MPEG Audio
Версия формата : Version 1
Профиль формата : Layer 3
Режим : Joint stereo
Расширение режима : MS Stereo
Идентификатор кодека : 55
Идентификатор кодека/Подсказка : MP3
Продолжительность : 42 м.
Вид битрейта : Постоянный
Битрейт : 128 Кбит/сек
Каналы : 2 канала
Частота : 48,0 КГц
Метод сжатия : С потерями
Размер потока : 39,3 Мбайт (8%)
Выравнивание : Соединение по промежуткам
Продолжительность промежутка : 42 мс. (1,00 видеокадр)
Время предзагрузки промежутка : 504 мс.


Ганнибал скачать торрент


pb.wtf



Скачать Ганнибал через торрент http://i33.fastpic.ru/big/2013/0413/d8/8783168a109555920c2c709efedb45d8.png Скачать фильм Ганнибал через торрент бесплантно в хорошем качестве Описание: Уилл Грэхэм — одаренный профайлер, который вместе с ФБР разыскивает серийного убийцу. Уникальный способ мышления Грэма дает ему ... 9.9 10 44
Info! Золотая раздача, скачанное не засчитывается.
Торрент: Зарегистрирован [2013-06-13 15:34] · скачан: 352 раз
Статус: √ проверено
Размер: 5.37 GB
Как cкачать? Как скачать Ганнибал через торрент | qTorrent

% Раздел Тема Автор DL S | L
Зарубежные сериалы [ 15.16 GB ] Ганнибал / Hannibal / Сезон: 1 / Серии: 1-11 из 13 [2013 WEB-DLRip 720p] diletant Скачать
1 | 0


Последний раз редактировалось: qwerty411 (2013-06-13 15:34), всего редактировалось 6 раз(а)

28-11-2019 20:33  

Отключить всю рекламу на сайте

14-04-2013 19:14 Ганнибал Скачать торрент  

жаль только мало сериалов таких выходит!!!!!pb.wtf



15-04-2013 14:54 Ганнибал Скачать торрент  

Спасибо! Посмотрим что получилось.... pb.wtf



18-04-2013 14:35 Ганнибал Скачать торрент  

спасибо за релиз!!!!pb.wtf



21-04-2013 12:35 Ганнибал Скачать торрент  

Раздача обновлена!
Добавлена 3 серия!
pb.wtf



22-04-2013 09:27 Ганнибал Скачать торрент  

Спасибо! сериал Супер!pb.wtf



25-04-2013 09:12 Ганнибал Скачать торрент  

спасибо за сериальчег)pb.wtf



05-05-2013 09:37 Ганнибал Скачать торрент  

Раздача обновлена!
Добавлены с 4 по 6 серии!
pb.wtf



14-05-2013 12:47 Ганнибал Скачать торрент  

Раздача обновлена!
Добавлена 7 серия!
pb.wtf



22-05-2013 16:46 Ганнибал Скачать торрент  

Раздача обновлена!
Добавлена 8 серия!
pb.wtf



03-06-2013 13:11 Ганнибал Скачать торрент  

Раздача обновлена!
Добавлены 9 и 10 серии!
pb.wtf



13-06-2013 15:34 Ганнибал Скачать торрент  

Раздача обновлена!
Добавлена 11 серия!
pb.wtf



26-06-2013 14:22 Ганнибал Скачать торрент  

Когда будет 12 серия???pb.wtf



09-07-2015 00:07 Ганнибал Скачать торрент  

Народ, дайте доскачать сериальчик.... Тормознуло на 96,2%....pb.wtf



    Дорогой пользователь! Огромная просьба, поблагодарите релизера, оцените раздачу и оставьте свои комментарий, если Вы скачали Ганнибал через торрент бесплатно! Внесите свою лепту в развитие PiratBit!
    Комментировать посты могут только пользователи прошедшие не сложную регистрацию
    Показать сообщения:    

    Ганнибал через торрент
    Скачать бесплатно Ганнибал
    Ганнибал скачать торрент
    Ганнибал смотреть онлайн
    Cкачать фильм Ганнибал бесплатно
    Ганнибал скачать торрент в хорошем качестве
    Ганнибал смотреть онлайн бесплатно в хорошем качестве


    Вы не можете начинать темы
    Вы не можете отвечать на сообщения
    Вы не можете редактировать свои сообщения
    Вы не можете удалять свои сообщения
    Вы не можете голосовать в опросах
    Вы не можете прикреплять файлы к сообщениям
    Вы можете скачивать файлы