2 сезон

iTunes

MVO

1

2 сезон

iTunes

iTunes

1 сезон

RePack

30

Новинка

ВАЖНО

ИГРА 18+

pack

RePack

MK11
pack

Легкие деньги

RePack

jed

RePack

fifa19

RePack

RDR2

RePack

NEED FOR SPEED™ PAYBACK

4 сезон

9 сезон

Бесстыжие 9 сезон

Все сериалы

все сериалы на PB.wtf

RePack

FAR CRY 5

Anonymous, добрый вечер, мы не успеваем собрать деньги на оплату серверов за декабрь и январь, помогите нам пожалуйста в это трудное время. В качестве благодарности мы отключим Вам всю рекламу на сайте (укажите свой ник в строку Ваше имя)!

×
  
Magnet ссылка

Тихая гавань / Safe Haven (Лассе Халльстрём) [2013 г., Триллер, драма, мелодрама, детектив, DVDRip, Дубляж, лицензия] pb.wtf

Тихая гавань через торрент pb.wtf

Размер: 2.05 GB | Добавлен: 7 лет 9 мес. назад | Торрент скачан:447 раз
Скачать  

14-04-2013 04:32 Тихая гавань Скачать торрент  

Тихая гавань / Safe Haven
Год выпуска: 2013
Страна: США / Relativity Media, Nicholas Sparks Productions, Temple Hill Entertainment
Жанр: Триллер, драма, мелодрама, детектив
Продолжительность: 01:50:52
Перевод: Дублированный [лицензия]

Режиссер: Лассе Халльстрём
Продюссер: Марти Бауэн, Вик Годфри, Райан Кэвэна
В ролях: Джош Дюамель, Джулианна Хаф, Коби Смолдерс, Дэвид Лайонс, Ирен Циглер, Джон Кохлер, Тим Парати, Джулия Пагано, Хуан Пьедраита, Ред Уэст

Дата мировой премьеры: 13 февраля 2013
Дата российской премьеры: 14 февраля 2013, «Парадиз»
Дата выхода DVD релиза: 16 апреля 2013, «Парадиз Медиа»



Описание:
Кэти много лет страдала от жестокости мужа. Потеряв надежду на спасение, она совершила отчаянный побег и обрела «тихую гавань» в маленьком спокойном южном городке. Но готова ли Кэти к новым отношениям? Способна ли вновь поверить мужчине, понять его и полюбить? Даже если речь идет о таком обаятельном человеке, как молодой вдовец Алекс Уитли. Алекс и Кэти идут по тонкому льду неизвестности, — а между тем муж Кэти уже начал ее поиски.

Качество: DVDRip
Формат: AVI
Видео кодек: XviD
Аудио кодек: AC3
Видео: 720x400, 25,000 кадров/сек, ~2255 Кбит/сек
Аудио#1: 5.1, 384 Кбит/сек, 48,0 КГц
Скриншоты
скриншот   скриншот   скриншот   скриншот  
скриншот   скриншот   скриншот  

Код:

Общее
Полное имя : D:Торрент раздачаTihaya_gavan_DVDRip.avi
Формат : AVI
Формат/Информация : Audio Video Interleave
Профиль формата : OpenDML
Размер файла : 2,05 Гбайт
Продолжительность : 1 ч. 50 м.
Общий поток : 2651 Кбит/сек
Программа кодирования : VirtualDubMod 1.5.10.2 (build 2540/release)
Библиотека кодирования : VirtualDubMod build 2540/release

Видео
Идентификатор : 0
Формат : MPEG-4 Visual
Профиль формата : Advanced Simple@L5
Параметр BVOP формата : 1
Параметр QPel формата : Нет
Параметр GMC формата : Без точки перехода
Параметр матрицы формата : Выборочная
Идентификатор кодека : XVID
Идентификатор кодека/Подсказка : XviD
Продолжительность : 1 ч. 50 м.
Битрейт : 2254 Кбит/сек
Ширина : 720 пикселей
Высота : 400 пикселей
Соотношение сторон : 16:9
Частота кадров : 25,000 кадров/сек
Цветовое пространство : YUV
Субдискретизация насыщенности : 4:2:0
Битовая глубина : 8 бит
Тип развёртки : Прогрессивная
Метод сжатия : С потерями
Бит/(Пиксели*Кадры) : 0.313
Размер потока : 1,75 Гбайт (85%)
Библиотека кодирования : XviD 1.2.1 (UTC 2008-12-04)

Аудио
Идентификатор : 1
Формат : AC-3
Формат/Информация : Audio Coding 3
Расширение режима : CM (complete main)
Параметр Endianness формата : Big
Идентификатор кодека : 2000
Продолжительность : 1 ч. 50 м.
Вид битрейта : Постоянный
Битрейт : 384 Кбит/сек
Каналы : 6 каналов
Расположение каналов : Front: L C R, Side: L R, LFE
Частота : 48,0 КГц
Битовая глубина : 16 бит
Метод сжатия : С потерями
Размер потока : 305 Мбайт (14%)
Выравнивание : Разделение по промежуткам
Продолжительность промежутка : 40 мс. (1,00 видеокадр)
Время предзагрузки промежутка : 500 мс.



«Важно не то, от чего ты бежишь, а то, к чему ты приходишь»
pb.wtf



Скачать Тихая гавань через торрент https://pic.kartinco.top/images/2/p8ogmlsnew.jpg Скачать фильм Тихая гавань через торрент бесплантно в хорошем качестве Описание:Кэти много лет страдала от жестокости мужа. Потеряв надежду на спасение, она совершила отчаянный побег и обрела «тихую гавань» в ... 10 10 13
Info! Золотая раздача, скачанное не засчитывается.
Торрент: Зарегистрирован [2013-04-14 04:32] · скачан: 447 раз
Статус: √ проверено
Размер: 2.05 GB
Как cкачать? Как скачать Тихая гавань через торрент | UTorrent

% Раздел Тема Автор DL S | L
Фильмы (Blu-ray, BD-Remux, HDDVD) [ 37.79 GB ] Тихая гавань / Safe Haven [2013 Blu-ray 1080p от NovaLan / US Transfer] DUB Ворон Скачать
1 | 0
Фильмы 2013 [DVDrip, WEB-DLRip, HDrip] [ 1.46 GB ] Тихая гавань / Safe Haven [2013 DVDRip] DUB [ лицензия ] Ворон Скачать
1 | 0
Фильмы 2013 [DVDrip, WEB-DLRip, HDrip] [ 1.46 GB ] Тихая гавань / Safe Haven [2013 HDRip ] KaZtOrChAnIn Скачать
1 | 0
Фильмы 2013 [DVDrip, WEB-DLRip, HDrip] [ 746 MB ] Тихая гавань / Safe Haven [2013 DVDRip лицензия] Espacio Скачать
1 | 0
Фильмы (DVD фильмы) [ 4.36 GB ] Тихая гавань / Safe Haven [2013 DVD5] R5 voovaz Скачать
1 | 0

28-11-2019 20:33  

Отключить всю рекламу на сайте

    Дорогой пользователь! Огромная просьба, поблагодарите релизера, оцените раздачу и оставьте свои комментарий, если Вы скачали Тихая гавань через торрент бесплатно! Внесите свою лепту в развитие PiratBit!
    Комментировать посты могут только пользователи прошедшие не сложную регистрацию
    Показать сообщения:    

    Тихая гавань через торрент
    Скачать бесплатно Тихая гавань
    Тихая гавань скачать торрент
    Тихая гавань смотреть онлайн
    Cкачать фильм Тихая гавань бесплатно
    Тихая гавань скачать торрент в хорошем качестве
    Тихая гавань смотреть онлайн бесплатно в хорошем качестве


    Вы не можете начинать темы
    Вы не можете отвечать на сообщения
    Вы не можете редактировать свои сообщения
    Вы не можете удалять свои сообщения
    Вы не можете голосовать в опросах
    Вы не можете прикреплять файлы к сообщениям
    Вы можете скачивать файлы