2 сезон

iTunes

MVO

1

2 сезон

iTunes

iTunes

1 сезон

RePack

30

Ultimate

ВАЖНО

ИГРА 18+

pack

RePack

MK11
pack

Легкие деньги

RePack

jed

RePack

fifa19

RePack

RDR2

RePack

NEED FOR SPEED™ PAYBACK

4 сезон

9 сезон

Бесстыжие 9 сезон

Все сериалы

все сериалы на PB.wtf

RePack

FAR CRY 5

Anonymous, добрый день, мы не успеваем собрать деньги на оплату серверов за декабрь и январь, помогите нам пожалуйста в это трудное время. В качестве благодарности мы отключим Вам всю рекламу на сайте (укажите свой ник в строку Ваше имя)!

×
  
Magnet ссылка

Дверь / The Door (Мэттью Арнольд) [2013 г., триллер, DVDRip, VO] pb.wtf

Дверь через торрент pb.wtf

Размер: 333 MB | Добавлен: 7 лет 9 мес. назад | Торрент скачан:31 раз
Скачать  

14-04-2013 09:31 Дверь Скачать торрент  

Дверь / The Door
Год выпуска: 2013
Страна: США
Жанр: триллер,
Продолжительность: 89 мин. / 01:29
Перевод: Любительский одноголосый
Тип релиза: Пиратка
Субтитры: Отсутствуют

Режиссер: Мэттью Арнольд
Продюссер: Майкл Оуховен, Роб Бэйкер, Джеймс Гибб
Сценарий: Мэттью Арнольд

Премьера в мире: 19 марта 2013



В ролях: Даллас Робертс, Элисон Иствуд, Энн Дудек, Мария Боннер, Кристофер Керри, Ричи Монтгомери, Марко Ст. Джон, Билли Слотер, Брайан Мэсси, Гари Граббс, Жаклин Флеминг, Дебби Годет, Клаудия Коффи, Моника Акоста, Зэк Чино, Наташа Итзель, Дэймон Липари, Майк Вон.,

Описание: Главный герой Чарли Кроу работает ведущим на радио. Однажды, в прямом эфире он узнает о никому неизвестных «Людях теней», которые ищут своих жертв и убивают их. Чарли Кроу решает лучше узнать о таинственных созданиях и через некоторое время сам смог увидеть их.

Качество: DVDRip
Формат: AVС
Видео кодек: FLV
Аудио кодек: AC3
Видео: 450 Кбит/сек 704х288 пикселей 23,976 кадра/сек
Аудио#1: 94,4 Кбит/сек 2 канала 44,1 КГц




Общее
Формат : Flash Video
Размер файла : 333 Мбайт
Продолжительность : 1 ч. 28 м.
Общий поток : 523 Кбит/сек
Пометившая программа : Yet Another Metadata Injector for FLV - Version 1.9

Видео
Формат : AVC
Формат/Информация : Advanced Video Codec
Профиль формата : High@L2.1
Параметр CABAC формата : Да
Параметр ReFrames формата : 4 кадра
Идентификатор кодека : 7
Продолжительность : 1 ч. 28 м.
Битрейт : 409 Кбит/сек
Номинальный битрейт : 450 Кбит/сек
Ширина : 704 пикселя
Высота : 288 пикселей
Соотношение сторон : 2,40:1
Режим частоты кадров : Постоянный
Частота кадров : 23,976 кадра/сек
Цветовое пространство : YUV
Субдискретизация насыщенности : 4:2:0
Битовая глубина : 8 бит
Тип развёртки : Прогрессивная
Бит/(Пиксели*Кадры) : 0.084
Размер потока : 268 Мбайт (80%)
Библиотека кодирования : x264 core 129 r2 bc13772

Аудио
Формат : AAC
Формат/Информация : Advanced Audio Codec
Профиль формата : LC
Идентификатор кодека : 10
Продолжительность : 1 ч. 28 м.
Битрейт : 94,4 Кбит/сек
Каналы : 2 канала
Расположение каналов : Front: L R
Частота : 44,1 КГц
Метод сжатия : С потерями
Задержка видео : 37 мс.
Размер потока : 63,9 Мбайт (19%)

pb.wtf



Скачать Дверь через торрент http://pic.kartinco.top/images/2/g47tklern7.png Скачать фильм Дверь через торрент бесплантно в хорошем качестве Описание: Главный герой Чарли Кроу работает ведущим на радио. Однажды, в прямом эфире он узнает о никому неизвестных «Людях теней», которые ... 8 10 3
Info! Золотая раздача, скачанное не засчитывается.
Торрент: Зарегистрирован [2013-04-14 09:31] · скачан: 31 раз
Статус: T временная
Размер: 333 MB
Как cкачать? Как скачать Дверь через торрент | UTorrent

% Раздел Тема Автор DL S | L
Фильмы 2019-2020 [DVDrip, WEB-DLRip, HDrip] (DUB, MVO) [ 1.42 GB ] За призрачной дверью / The Pale Door [2020 BDRip] - Twi7ter Скачать
10 | 1
Фильмы 2019-2020 [DVDrip, WEB-DLRip, HDrip] (DUB, MVO) [ 2.14 GB ] За призрачной дверью / The Pale Door [2020 BDRip-AVC] bober100 Скачать
1 | 0
Фильмы [HD 720p, 1080p] (Хороший звук DUB, MVO) [ 7.1 GB ] За призрачной дверью / The Pale Door [2020 BDRip 720p] bober100 Скачать
11 | 0
Фильмы (Blu-ray, BD-Remux, HDDVD) [ 26.6 GB ] За призрачной дверью / The Pale Door [2020 BD Remux 1080p] bober100 Скачать
1 | 0
Фильмы [HD 720p, 1080p] (Хороший звук DUB, MVO) [ 15.48 GB ] За призрачной дверью / The Pale Door [2020 BDRip 1080p] bober100 Скачать
1 | 0
Фильмы 2019-2020 [DVDrip, WEB-DLRip, HDrip] (DUB, MVO) [ 1.46 GB ] За призрачной дверью / The Pale Door [2020 BDRip] bober100 Скачать
2 | 0
Классические порно фильмы [ 699 MB ] За зеленой дверью / Behind the Green Door [1972 Drama Classic sex Oral Adult Orgy DVDRip] ENG PROCTOLOG Скачать
2 | 0

28-11-2019 20:33  

Отключить всю рекламу на сайте

14-04-2013 10:07 Дверь Скачать торрент  

byblackmexx
Разделом ошиблись http://pb.wtf/forum/651/
И в шапке поправьте на одноголосый :ad:pb.wtf



    Дорогой пользователь! Огромная просьба, поблагодарите релизера, оцените раздачу и оставьте свои комментарий, если Вы скачали Дверь через торрент бесплатно! Внесите свою лепту в развитие PiratBit!
    Комментировать посты могут только пользователи прошедшие не сложную регистрацию
    Показать сообщения:    

    Дверь через торрент
    Скачать бесплатно Дверь
    Дверь скачать торрент
    Дверь смотреть онлайн
    Cкачать фильм Дверь бесплатно
    Дверь скачать торрент в хорошем качестве
    Дверь смотреть онлайн бесплатно в хорошем качестве


    Вы не можете начинать темы
    Вы не можете отвечать на сообщения
    Вы не можете редактировать свои сообщения
    Вы не можете удалять свои сообщения
    Вы не можете голосовать в опросах
    Вы не можете прикреплять файлы к сообщениям
    Вы можете скачивать файлы