Ссылка на приватное зеркало нашего сайта всего за 1$. Внимание количество ограничено!!!

2 сезон

iTunes

1 сезон

1

iTunes

iTunes

iTunes

1 сезон

RePack

30

ИГРА 18+

pack

ВАЖНО

!!Акция!!

Alien_RageХит недели

RePack

MK11
pack

Забери бонус

RePack

jed

!!Акция!!

Alien_Rage

RePack

fifa19

RePack

Assassins Creed: Odyssey

RePack

NEED FOR SPEED™ PAYBACK

4 сезон

9 сезон

Бесстыжие 9 сезон

Все сериалы

все сериалы на PB.wtf

RePack

FAR CRY 5
  

День ворон / Le jour des corneilles (Жан Кристоф Дюссант) [2012, мультфильмы, приключения, HDRip] DVO pb.wtf

День ворон через торрент pb.wtf

Размер: 1.37 GB | Добавлен: 7 лет 6 мес. назад | Торрент скачан:684 раза
Скачать  

14-04-2013 10:50 День ворон Скачать торрент  

День ворон
Le jour des corneilles



  • Год выпуска: 2012
  • Страна: Франция
  • Жанр: Приключения
  • Продолжительность: 01:34:19
  • Перевод: Профессиональный (двухголосый)
  • Субтитры: нет
  • Режиссер: Jean Christophe Dessaint
  • В ролях: Жан Рено (Le père Courge, озвучка), Лоран Дойч (Le fils Courge, озвучка), Изабель Карре (Manon, озвучка), Клод Шаброль (Le docteur, озвучка), Шанталь Нойвирт (La vieille Ronce, озвучка), Брюно Подалидес (L'infirmier, Le vieux Ronce, озвучка), Патрик Лигарде (Le sergent, Le vieux à la canne, озвучка), Филипп Юшан (Le maire, озвучка), Жан-Кристоф Лорье (Villageois, озвучка), Элоди Хубер (La mère, озвучка), Jeanne-sylvette Giraud (La petite corneille, озвучка)
  • Описание:
    Это история маленького мальчика, жестокий и людоедоподобный отец которого растил его в глубоком лесу как животное и не выпускал за его пределы. Но однажды ему удается сбежать, и он добирается до ближайшего города, чтобы открыть для себя, что таких как он много и что на самом деле значит "любовь".
  • Качество видео: HDRip [Исходник BDRip 720p]
  • Формат видео: AVI
  • Видео кодек: XviD
  • Аудио кодек: AC3
  • Видео: XviD; 720x304 (2.35:1); ~1622 Kbps; 23,976 fps; 0,294 bpp
  • Аудио: AC3; 448 Kbps; CBR; 6 ch; 16 bit,48 kHz

  • Сценарий: Jean-François Beauchemin, Амандин Таффен / Amandine Taffin
    Продюсер: Уильям Пико / William Picot, Roebben Anton, Stéphan Roelants, Люк Вэндал / Luc Vandal, Жиль Уотеркейн / Gilles Waterkeyn
    Композитор: Саймон Леклерк / Simon Leclerc





    General
    Complete name : D:ТорентыDen.voron.2012.P.HDRip.1400Mb.avi
    Format : AVI
    Format/Info : Audio Video Interleave
    File size : 1.37 GiB
    Duration : 1h 34mn
    Overall bit rate : 2 080 Kbps
    Writing application : VirtualDubMod 1.5.10.2 (build 2542/release)
    Writing library : VirtualDubMod build 2542/release

    Video
    ID : 0
    Format : MPEG-4 Visual
    Format profile : Advanced Simple@L5
    Format settings, BVOP : 2
    Format settings, QPel : No
    Format settings, GMC : No warppoints
    Format settings, Matrix : Default (MPEG)
    Muxing mode : Packed bitstream
    Codec ID : XVID
    Codec ID/Hint : XviD
    Duration : 1h 34mn
    Bit rate : ~1622 Kbps
    Width : 720 pixels
    Height : 304 pixels
    Display aspect ratio : 2.35:1
    Frame rate : 23.976 fps
    Color space : YUV
    Chroma subsampling : 4:2:0
    Bit depth : 8 bits
    Scan type : Progressive
    Compression mode : Lossy
    Bits/(Pixel*Frame) : 0.294
    Stream size : 1.01 GiB (74%)
    Writing library : XviD 1.2.1 (UTC 2008-12-04)

    Audio
    ID : 1
    Format : AC-3
    Format/Info : Audio Coding 3
    Mode extension : CM (complete main)
    Codec ID : 2000
    Duration : 1h 34mn
    Bit rate mode : Constant
    Bit rate : 448 Kbps
    Channel(s) : 6 channels
    Channel positions : Front: L C R, Side: L R, LFE
    Sampling rate : 48.0 KHz
    Bit depth : 16 bits
    Compression mode : Lossy
    Delay relative to video : 20ms
    Stream size : 302 MiB (22%)
    Alignment : Split accross interleaves

    © Оформление by Vetalpb.wtf



  • Скачать День ворон через торрент http://i33.fastpic.ru/big/2013/0414/e2/c173130d19afe3ce54aa9284ceb982e2.jpg Скачать фильм День ворон через торрент бесплантно в хорошем качестве Описание: Это история маленького мальчика, жестокий и людоедоподобный отец которого растил его в глубоком лесу как животное и не выпускал ... 9.8 10 27
    Info! Золотая раздача, скачанное не засчитывается.
    Торрент: Зарегистрирован [2013-04-14 10:50] · скачан: 684 раз
    Статус: √ проверено
    Размер: 1.37 GB
    Как cкачать? Как скачать День ворон через торрент | qTorrent

    28-11-2019 20:33  

    Отключить всю рекламу на сайте

    15-05-2013 06:39 День ворон Скачать торрент  

    посмотрим с младшим, спасибоpb.wtf



      Дорогой пользователь! Огромная просьба, поблагодарите релизера, оцените раздачу и оставьте свои комментарий, если Вы скачали День ворон через торрент бесплатно! Внесите свою лепту в развитие PiratBit!
      Комментировать посты могут только пользователи прошедшие не сложную регистрацию
      Показать сообщения:    

      День ворон через торрент
      Скачать бесплатно День ворон
      День ворон скачать торрент
      День ворон смотреть онлайн
      Cкачать фильм День ворон бесплатно
      День ворон скачать торрент в хорошем качестве
      День ворон смотреть онлайн бесплатно в хорошем качестве


      Вы не можете начинать темы
      Вы не можете отвечать на сообщения
      Вы не можете редактировать свои сообщения
      Вы не можете удалять свои сообщения
      Вы не можете голосовать в опросах
      Вы не можете прикреплять файлы к сообщениям
      Вы можете скачивать файлы