Ссылка на приватное зеркало нашего сайта всего за 1$. Внимание количество ограничено!!!

2 сезон

iTunes

1 сезон

1

iTunes

iTunes

iTunes

1 сезон

RePack

30

ИГРА 18+

pack

ВАЖНО

!!Акция!!

Alien_RageХит недели

RePack

MK11
pack

Забери бонус

RePack

jed

!!Акция!!

Alien_Rage

RePack

fifa19

RePack

Assassins Creed: Odyssey

RePack

NEED FOR SPEED™ PAYBACK

4 сезон

9 сезон

Бесстыжие 9 сезон

Все сериалы

все сериалы на PB.wtf

RePack

FAR CRY 5
  

Окно во двор / Rear Window (Альфред Хичкок) [1954 г., триллер, детектив, BDRip 1080p, MVO, лицензия] pb.wtf

Окно во двор через торрент pb.wtf

Размер: 15.92 GB | Добавлен: 7 лет 6 мес. назад | Торрент скачан:8 раз
Скачать  

14-04-2013 13:00 Окно во двор Скачать торрент  

Окно во двор / Rear Window
Год выпуска: 1954
Страна: США
Жанр: триллер, детектив,
Продолжительность: 112 мин. / 01:52
Перевод: Профессиональный многоголосый, Лицензия
Тип релиза: Лицензия
Субтитры: Нет

Режиссер: Альфред Хичкок
Продюссер: Альфред Хичкок
Сценарий: Джон Майкл Хейс, Корнелл Вулрич

Бюджет: $2 000 000
Премьера в мире: 1 августа 1954г

рекомендуется присутствие родителей
Мировой рейтинг IMDB 8.70 (191 624)


В ролях:
Джеймс Стюарт — Л. Б. Джеффрис
Грейс Келли — Лиза Кэрол Фремон
Уэнделл Кори — детектив Томас Дойл
Телма Риттер — Стелла
Рэймонд Бёрр — Ларс Торвальд
Джудит Эвелин — Мисс Одинокое Сердце
Росс Багдасарян — композитор
Джорджин Дарси — мисс Торсо
Ирен Уинстон — миссис Анна Торвальд
Сара Бернер — жена, живущая над Торвальдами
Фрэнк Кэди — муж, живущий над Торвальдами,

Описание: Прикованный из-за сломанной ноги к инвалидному креслу фоторепортер от скуки начинает наблюдать за соседями, живущими в его же доме, чьи окна выходят во внутренний двор. Действие происходит в Гринвич Вилледж. Постоянные наблюдения наталкивают его на подозрение, что один из соседей убил свою жену...

Доп. информация: Контейнер mp4 (Почему?!) Рип делался для просмотра на телевизорах SmartTV и плеерах. Ввиду того, что у некоторых современных телевизоров возникают проблемы при воспроизведении MKV файлов, контейнер был взят более щадящий.
В исходнике Blue Ray, черные полосы по краям обрезаны для более полезного пространства, а также картинка была немного подредактирована с увеличением яркости на 4% и контрасности 2%.
Присутствует перевод: многоголосый R5 (по умолчанию из HDTV), профессиональный двухголосый (с Blue Ray), английский оригинал (с Blue Ray).

Специально для сайта: www.grace-kelly.ru

Качество: BDRip 1080p
Формат: MP4
Видео кодек: H.264
Аудио кодек: AC3
Видео: 1920x1080 (1.78:1), 24fps, H.264/MPEG-4 AVC, 20000 kbps, 0.398 (bit/pixel)
Аудио#1: Russian R5 (многоголосый), 48 kHz, AC3 Dolby Digital , 2 channels (Front: L R), 192 Kbps
Аудио#2: Russian (профессиональный двухголосый), 48kHz, AAC, 2 Chanel (Front L R), 188 Kbps
Аудио#3: English (оригинал), 48kHz, AAC, 2 Chanel (Front L R), 109 Kbps




NAS-HDDvideoАльфред ХичкокОкно во дворRear_Window_Hd1080p_(pioner).mp4
General
Complete name : NAS-HDDvideoАльфред ХичкокОкно во дворRear_Window_Hd1080p_(pioner).mp4
Format : MPEG-4
Format profile : Base Media
Codec ID : isom
File size : 15.9 GiB
Duration : 1h 52mn
Overall bit rate mode : Variable
Overall bit rate : 20.3 Mbps
Encoded date : UTC 2013-04-12 15:56:06
Tagged date : UTC 2013-04-12 15:56:06

Video #1
ID : 1
Format : AVC
Format/Info : Advanced Video Codec
Format profile : Baseline@L4.0
Format settings, CABAC : No
Format settings, ReFrames : 2 frames
Format settings, GOP : M=1, N=12
Codec ID : avc1
Codec ID/Info : Advanced Video Coding
Duration : 1h 52mn
Bit rate : 19.8 Mbps
Maximum bit rate : 23.8 Mbps
Width : 1 920 pixels
Height : 1 080 pixels
Display aspect ratio : 16:9
Frame rate mode : Constant
Frame rate : 24.000 fps
Standard : NTSC
Color space : YUV
Chroma subsampling : 4:2:0
Bit depth : 8 bits
Scan type : Progressive
Bits/(Pixel*Frame) : 0.398
Stream size : 15.6 GiB (98%)
Tagged date : UTC 2013-04-12 16:06:18
Color primaries : BT.601 NTSC
Transfer characteristics : BT.601
Matrix coefficients : BT.601
Audio #2
ID : 2
Format : AC-3
Format/Info : Audio Coding 3
Mode extension : CM (complete main)
Format settings, Endianness : Big
Codec ID : ac-3
Duration : 1h 52mn
Bit rate mode : Constant
Bit rate : 192 Kbps
Channel(s) : 2 channels
Channel positions : Front: L R
Sampling rate : 48.0 KHz
Bit depth : 16 bits
Compression mode : Lossy
Delay relative to video : 42ms
Stream size : 154 MiB (1%)
Title : Russian R5 CH2.0
Language : Russian
Encoded date : UTC 2013-04-12 16:02:21
Tagged date : UTC 2013-04-12 16:06:18
Audio #3
ID : 3
Format : AAC
Format/Info : Advanced Audio Codec
Format profile : LC
Codec ID : 40
Duration : 1h 52mn
Bit rate mode : Variable
Bit rate : 165 Kbps
Maximum bit rate : 188 Kbps
Channel(s) : 2 channels
Channel positions : Front: L R
Sampling rate : 48.0 KHz
Compression mode : Lossy
Delay relative to video : 42ms
Stream size : 133 MiB (1%)
Title : Russian Dual CH 2.0
Language : Russian
Encoded date : UTC 2013-04-12 16:02:39
Tagged date : UTC 2013-04-12 16:06:18
Audio #4
ID : 4
Format : AAC
Format/Info : Advanced Audio Codec
Format profile : LC
Codec ID : 40
Duration : 1h 52mn
Bit rate mode : Variable
Bit rate : 86.6 Kbps
Maximum bit rate : 109 Kbps
Channel(s) : 2 channels
Channel positions : Front: L R
Sampling rate : 48.0 KHz
Compression mode : Lossy
Delay relative to video : 42ms
Stream size : 69.6 MiB (0%)
Title : English CH 2.0
Language : English
Encoded date : UTC 2013-04-12 16:06:13
Tagged date : UTC 2013-04-12 16:06:18


Окно во двор скачать торрент


pb.wtf



Скачать Окно во двор через торрент http://pic.kartinco.top/images/2/ddf9qvt12i.jpg Скачать фильм Окно во двор через торрент бесплантно в хорошем качестве Описание: Прикованный из-за сломанной ноги к инвалидному креслу фоторепортер от скуки начинает наблюдать за соседями, живущими в его же ... 10 10 3
Info! Золотая раздача, скачанное не засчитывается.
Торрент: Зарегистрирован [2013-04-14 13:00] · скачан: 8 раз
Статус: √ проверено
Размер: 15.92 GB
Как cкачать? Как скачать Окно во двор через торрент | qTorrent

% Раздел Тема Автор DL S | L
Фильмы (Blu-ray, BD-Remux, HDDVD) [ 41.64 GB ] Окно во двор / Rear Window [1954 Blu-ray 1080p] / EUR Transfer / DVO Russian Mafia Скачать
1 | 0

28-11-2019 20:33  

Отключить всю рекламу на сайте

14-04-2013 14:16 Окно во двор Скачать торрент  

Благодарю за Золото !pb.wtf



14-04-2013 16:06 Окно во двор Скачать торрент  

Раритет!Беру!!!pb.wtf



15-04-2013 02:38 Окно во двор Скачать торрент  

Прошу пользователей качающих раздачу, не гневаться на отсутствие сида. Как приду с работы, буду раздавать. Проблема возникает на NAS с которого раздается. pb.wtf



19-02-2014 06:54 Окно во двор Скачать торрент  

Раздаю с 16:00 по 21:00! МСКpb.wtf



18-10-2015 10:07 Окно во двор Скачать торрент  

К сожалению раздачу нужно удалить, ибо файл утерян и сделан новый рипpb.wtf



    Дорогой пользователь! Огромная просьба, поблагодарите релизера, оцените раздачу и оставьте свои комментарий, если Вы скачали Окно во двор через торрент бесплатно! Внесите свою лепту в развитие PiratBit!
    Комментировать посты могут только пользователи прошедшие не сложную регистрацию
    Показать сообщения:    

    Окно во двор через торрент
    Скачать бесплатно Окно во двор
    Окно во двор скачать торрент
    Окно во двор смотреть онлайн
    Cкачать фильм Окно во двор бесплатно
    Окно во двор скачать торрент в хорошем качестве
    Окно во двор смотреть онлайн бесплатно в хорошем качестве


    Вы не можете начинать темы
    Вы не можете отвечать на сообщения
    Вы не можете редактировать свои сообщения
    Вы не можете удалять свои сообщения
    Вы не можете голосовать в опросах
    Вы не можете прикреплять файлы к сообщениям
    Вы можете скачивать файлы