2 сезон

iTunes

MVO

1

2 сезон

iTunes

iTunes

1 сезон

RePack

30

Новинка

ВАЖНО

ИГРА 18+

pack

RePack

MK11
pack

Легкие деньги

RePack

jed

RePack

fifa19

RePack

RDR2

RePack

NEED FOR SPEED™ PAYBACK

4 сезон

9 сезон

Бесстыжие 9 сезон

Все сериалы

все сериалы на PB.wtf

RePack

FAR CRY 5

Anonymous, добрый день, мы не успеваем собрать деньги на оплату серверов за декабрь и январь, помогите нам пожалуйста в это трудное время. В качестве благодарности мы отключим Вам всю рекламу на сайте (укажите свой ник в строку Ваше имя)!

×
  
Magnet ссылка

Обитель Зла: Возмездие в 3D / Resident Evil: Retribution 3D (Пол У. С. Андерсон) [2012 г., ужасы, фантастика, боевик, триллер, BDRip 720p, Дубляж, лицензия] Anaglyph (Дюбуа) pb.wtf

Обитель Зла: Возмездие в 3D через торрент pb.wtf

Размер: 3.35 GB | Добавлен: 7 лет 9 мес. назад | Торрент скачан:186 раз
Скачать  

14-04-2013 16:09 Обитель Зла: Возмездие в 3D Скачать торрент  

Обитель Зла: Возмездие в3D / Resident Evil: Retribution 3D

Год выпуска: 2012
Страна: США, Германия, Канада
Жанр: ужасы, фантастика, боевик, триллер
Продолжительность: 01:35:37
Перевод: Дубляж

Режиссер: Пол У. С. Андерсон
Продюссер: Пол У. С. Андерсон, Джереми Болт, Дон Кармоди
Сценарий: Пол У. С. Андерсон

Бюджет: $65 000 000
Премьера в мире: 3 сентября 2012



В ролях: Милла Йовович, Мишель Родригес, Сиенна Гиллори, Кевин Дюранд, Йохан Урб, Колин Сэмон, Ли Бинбин, Шон Робертс, Одед Фер, Спенсер Лок и др.

Роли дублировали: Ирина Киреева, Елена Соловьева, Инна Королёва, Анна Денисова, Валентина Абрамова

Описание: Смертельный T-вирус, созданный в лабораториях корпорации «Амбрелла», продолжает захватывать Землю, превращая мировое население в легионы пожирающих плоть зомби. Последняя надежда человечества, Элис, внедряется в самое сердце самой тайной исследовательской базы корпорации и узнает еще больше о собственном таинственном прошлом. Не имея путей к отступлению, Элис продолжает искать виновных в глобальной катастрофе. Вызов, который она принимала в Токио, Нью-Йорке, Вашингтоне и даже в Москве, приводит ее в итоге к взрывающему сознание откровению, которое заставит ее переосмыслить все, что она полагала правдой. С помощью новых союзников и старых друзей, Элис будет сражаться за выживание и убегать из враждебного мира. Отсчет времени начат…


Доп. информация: Формат 3D: Anaglyph (Дюбуа)



Качество: BDRip 720
Формат: MKV
Видео кодек: x264
Аудио кодек: AC3
Видео: 1280 x 720 (16:9), 23,976 fps, 4012 Kbps, 0.170 bits/pixel
Аудио#1: 48.0 kHz, AC3 Dolby Digital, 3/2 (L,C,R,l,r) + LFE ch, 384 kbps (RUS)
Аудио#2: 48.0 kHz, AC3 Dolby Digital, 3/2 (L,C,R,l,r) + LFE ch, 384 kbps (UKR)
Аудио#3: 48.0 kHz, AC3 Dolby Digital, 3/2 (L,C,R,l,r) + LFE ch, 384 kbps (ENG)
Субтитры: English, Russian



скриншот   скриншот   скриншот   скриншот   скриншот   скриншот  
Общее
Уникальный идентификатор : 214147056322039315244765898503848260875 (0xA11B390B35BC32D1968CC8817110F50B)
Полное имя : D:DVDResident.Evil.Retribution.3D(Anaglyph_Dubois).mkv
Формат : Matroska
Версия формата : Version 2
Размер файла : 3,35 Гбайт
Продолжительность : 1 ч. 35 м.
Общий поток : 5015 Кбит/сек
Название фильма : Resident Evil Retribution.3D(Anaglyph_Dubois)
Дата кодирования : UTC 2013-04-13 16:19:54
Программа кодирования : mkvmerge v4.0.0 ('The Stars were mine') сборка от Jun 6 2010 16:18:42
Библиотека кодирования : libebml v1.0.0 + libmatroska v1.0.0

Видео
Идентификатор : 1
Формат : AVC
Формат/Информация : Advanced Video Codec
Профиль формата : High@L3.1
Параметр CABAC формата : Да
Параметр ReFrames формата : 4 кадра
Идентификатор кодека : V_MPEG4/ISO/AVC
Продолжительность : 1 ч. 35 м.
Битрейт : 3764 Кбит/сек
Номинальный битрейт : 4012 Кбит/сек
Ширина : 1280 пикселей
Высота : 720 пикселей
Соотношение сторон : 16:9
Режим частоты кадров : Постоянный
Частота кадров : 23,976 кадра/сек
Цветовое пространство : YUV
Субдискретизация насыщенности : 4:2:0
Битовая глубина : 8 бит
Тип развёртки : Прогрессивная
Бит/(Пиксели*Кадры) : 0.170
Размер потока : 2,51 Гбайт (75%)
Заголовок : Resident Evil Retribution.3D(Anaglyph_Dubois).mv
Библиотека кодирования : x264 core 120
Настройки программы : cabac=1 / ref=3 / deblock=1:-1:-1 / analyse=0x3:0x113 / me=hex / subme=2 / psy=1 / psy_rd=1.00:0.15 / mixed_ref=1 / me_range=16 / chroma_me=1 / trellis=0 / 8x8dct=1 / cqm=0 / deadzone=21,11 / fast_pskip=1 / chroma_qp_offset=0 / threads=3 / sliced_threads=0 / nr=0 / decimate=1 / interlaced=0 / bluray_compat=0 / constrained_intra=0 / bframes=3 / b_pyramid=2 / b_adapt=1 / b_bias=0 / direct=1 / weightb=1 / open_gop=0 / weightp=2 / keyint=240 / keyint_min=24 / scenecut=40 / intra_refresh=0 / rc_lookahead=10 / rc=abr / mbtree=1 / bitrate=4012 / ratetol=1.0 / qcomp=0.60 / qpmin=3 / qpmax=69 / qpstep=4 / ip_ratio=1.40 / aq=1:1.00
Язык : English
Default : Да
Forced : Нет
Основные цвета : BT.709
Характеристики трансфера : BT.709
Коэффициенты матрицы : BT.709

Аудио #1
Идентификатор : 2
Формат : AC-3
Формат/Информация : Audio Coding 3
Расширение режима : CM (complete main)
Параметр Endianness формата : Big
Идентификатор кодека : A_AC3
Продолжительность : 1 ч. 35 м.
Вид битрейта : Постоянный
Битрейт : 384 Кбит/сек
Каналы : 6 каналов
Расположение каналов : Front: L C R, Side: L R, LFE
Частота : 48,0 КГц
Битовая глубина : 16 бит
Метод сжатия : С потерями
Размер потока : 263 Мбайт (8%)
Заголовок : AC3 / 5.1 ch / 384 kbps / Русский дубляж BD CEE
Язык : Russian
Default : Да
Forced : Нет

Аудио #2
Идентификатор : 3
Формат : AC-3
Формат/Информация : Audio Coding 3
Расширение режима : CM (complete main)
Параметр Endianness формата : Big
Идентификатор кодека : A_AC3
Продолжительность : 1 ч. 35 м.
Вид битрейта : Постоянный
Битрейт : 384 Кбит/сек
Каналы : 6 каналов
Расположение каналов : Front: L C R, Side: L R, LFE
Частота : 48,0 КГц
Битовая глубина : 16 бит
Метод сжатия : С потерями
Размер потока : 263 Мбайт (8%)
Заголовок : AC3 / 5.1 ch / 384 kbps / Украинский дубляж BD CEE
Язык : Ukrainian
Default : Нет
Forced : Нет

Аудио #3
Идентификатор : 4
Формат : AC-3
Формат/Информация : Audio Coding 3
Расширение режима : CM (complete main)
Параметр Endianness формата : Big
Идентификатор кодека : A_AC3
Продолжительность : 1 ч. 35 м.
Вид битрейта : Постоянный
Битрейт : 384 Кбит/сек
Каналы : 6 каналов
Расположение каналов : Front: L C R, Side: L R, LFE
Частота : 48,0 КГц
Битовая глубина : 16 бит
Метод сжатия : С потерями
Размер потока : 263 Мбайт (8%)
Заголовок : AC3 / 5.1 ch / 384 kbps / Английский original BD CEE
Язык : English
Default : Нет
Forced : Нет

Текст #1
Идентификатор : 5
Формат : UTF-8
Идентификатор кодека : S_TEXT/UTF8
Идентификатор кодека/Информация : UTF-8 Plain Text
Заголовок : Full
Язык : Russian
Default : Нет
Forced : Нет

Текст #2
Идентификатор : 6
Формат : UTF-8
Идентификатор кодека : S_TEXT/UTF8
Идентификатор кодека/Информация : UTF-8 Plain Text
Заголовок : Full (i-фицированнные)
Язык : Russian
Default : Нет
Forced : Нет

Текст #3
Идентификатор : 7
Формат : UTF-8
Идентификатор кодека : S_TEXT/UTF8
Идентификатор кодека/Информация : UTF-8 Plain Text
Заголовок : Full
Язык : English
Default : Нет
Forced : Нет

Текст #4
Идентификатор : 8
Формат : UTF-8
Идентификатор кодека : S_TEXT/UTF8
Идентификатор кодека/Информация : UTF-8 Plain Text
Заголовок : Full 2
Язык : English
Default : Нет
Forced : Нет

Текст #5
Идентификатор : 9
Формат : UTF-8
Идентификатор кодека : S_TEXT/UTF8
Идентификатор кодека/Информация : UTF-8 Plain Text
Заголовок : SDH
Язык : English
Default : Нет
Forced : Нет

pb.wtf



Скачать Обитель Зла: Возмездие в 3D через торрент http://i49.fastpic.ru/big/2012/1206/2f/b60b8dae4fb0900e93a49835d251702f.jpg Скачать фильм Обитель Зла: Возмездие в 3D через торрент бесплантно в хорошем качестве Описание: Смертельный T-вирус, созданный в лабораториях корпорации «Амбрелла», продолжает захватывать Землю, превращая мировое население в ... 9.1 10 14
Info! Золотая раздача, скачанное не засчитывается.
Торрент: Зарегистрирован [2013-04-14 16:09] · скачан: 186 раз
Статус: √ проверено
Размер: 3.35 GB
Как cкачать? Как скачать Обитель Зла: Возмездие в 3D через торрент | UTorrent

% Раздел Тема Автор DL S | L
3D Фильмы [ 13.69 GB ] Обитель Зла: Возмездие в 3Д / Resident Evil: Retribution 3D [2012 BDrip 1080p] OverUnder / Вертикальная стереопара serega768 Скачать
1 | 0

28-11-2019 20:33  

Отключить всю рекламу на сайте

15-04-2013 06:05 Обитель Зла: Возмездие в 3D Скачать торрент  

...подскажите ,чем сей шедевр просмотреть?очки наверно нужны?pb.wtf



15-04-2013 10:10 Обитель Зла: Возмездие в 3D Скачать торрент  

В описании все указано : [img] http://torrents3d.ru/templates/default/images/dyz_an_1.gif [/img] Красно | Сине - зеленыеpb.wtf



    Дорогой пользователь! Огромная просьба, поблагодарите релизера, оцените раздачу и оставьте свои комментарий, если Вы скачали Обитель Зла: Возмездие в 3D через торрент бесплатно! Внесите свою лепту в развитие PiratBit!
    Комментировать посты могут только пользователи прошедшие не сложную регистрацию
    Показать сообщения:    

    Обитель Зла: Возмездие в 3D через торрент
    Скачать бесплатно Обитель Зла: Возмездие в 3D
    Обитель Зла: Возмездие в 3D скачать торрент
    Обитель Зла: Возмездие в 3D смотреть онлайн
    Cкачать фильм Обитель Зла: Возмездие в 3D бесплатно
    Обитель Зла: Возмездие в 3D скачать торрент в хорошем качестве
    Обитель Зла: Возмездие в 3D смотреть онлайн бесплатно в хорошем качестве


    Вы не можете начинать темы
    Вы не можете отвечать на сообщения
    Вы не можете редактировать свои сообщения
    Вы не можете удалять свои сообщения
    Вы не можете голосовать в опросах
    Вы не можете прикреплять файлы к сообщениям
    Вы можете скачивать файлы