Ссылка на приватное зеркало нашего сайта всего за 1$. Внимание количество ограничено!!!

2 сезон

iTunes

1 сезон

1

2 сезон

2 сезон

iTunes

1 сезон

RePack

30

Ultimate

ВАЖНО

ИГРА 18+

pack

RePack

MK11
pack

Забери бонус

RePack

jed

!!Акция!!

Alien_Rage

RePack

fifa19

RePack

Assassins Creed: Odyssey

RePack

NEED FOR SPEED™ PAYBACK

4 сезон

9 сезон

Бесстыжие 9 сезон

Все сериалы

все сериалы на PB.wtf

RePack

FAR CRY 5
  

Зов крови / Lost Girl (Стив ДиМарко, Джон Фоусет, Роберт Либерман) (Сезон: 1, серии 1-13 из 13) [2010 г., ужасы, фэнтези, криминал, WEB-DLRip, MVO, AXN Sci-Fi] pb.wtf

Зов крови через торрент pb.wtf

Размер: 6.98 GB | Добавлен: 7 лет 7 мес. назад | Торрент скачан:118 раз
Скачать  

15-04-2013 15:16 Зов крови Скачать торрент  

Зов крови / Lost Girl
Год выпуска: 2010
Страна: Канада
Жанр: ужасы, фэнтези, криминал,
Продолжительность: 60 мин. / 01:00
Перевод: Профессиональный многоголосый, AXN Sci-Fi

Режиссер: Стив ДиМарко Джон Фоусет Роберт Либерман
Продюссер: Эмили Андрас, Ванесса Пьяцца, Джей Файастоун
Сценарий: М. А. Ловеретта, Стефен Кокрейн, Дуана Таха

Мировой рейтинг IMDB 7.50 (9 965)


В ролях: Анна Силк, Кристен Холден-Рид, Ксения Соло, Ричард Хоуланд, Зои Палмер, К.К. Коллинз, Винсент Уолш, Рэйчел Скарстен, Лина Росслер, Эммануэль Вожье,

Описание: Бо — суккуб. Выросшая в человеческой семье она не знала о своей истинной природе, считая себя фриком, а неумение контролировать сверхъестественный голод сделало ее одинокой беглянкой, оставляющей после себя череду трупов. Все меняется, когда Бо попадает в поле зрения кланов Фэйри, объяснивших ей кто она. Не желая выбирать между кланами Света и Тьмы, Бо решает занять сторону людей. Ей помогают юная русская воровка Кензи, детектив-оборотень Дайсон и доктор Лорен, занимающаяся изучением Фэйри.

Качество: WEB-DLRip
Формат: AVI
Видео кодек: XviD
Аудио кодек: MP3
Видео: 720x400 (1.80), 23.976 fps, XviD MPEG-4, ~1359 kbps, 0.20 bit/pixel
Аудио#1: 48 kHz, MPEG Layer 3, 2 ch, ~192 kbps avg
Аудио#2: 48 kHz, MPEG Layer 3, 2 ch, ~192 kbps avg
Релиз от: NewStudio

General
Complete name : E:Zov.Krovi.s01e01.WEBDLRip.NewStudio.TV.avi
Format : AVI
Format/Info : Audio Video Interleave
File size : 550 MiB
Duration : 43mn 45s
Overall bit rate : 1 757 Kbps
Writing application : VirtualDubMod 1.5.10.2 (build 2540/release)
Writing library : VirtualDubMod build 2540/release
Video
ID : 0
Format : MPEG-4 Visual
Format profile : Advanced Simple@L5
Format settings, BVOP : Yes
Format settings, QPel : No
Format settings, GMC : No warppoints
Format settings, Matrix : Default (MPEG)
Codec ID : XVID
Codec ID/Hint : XviD
Duration : 43mn 45s
Bit rate : 1 359 Kbps
Width : 720 pixels
Height : 400 pixels
Display aspect ratio : 16:9
Frame rate : 23.976 fps
Resolution : 8 bits
Colorimetry : 4:2:0
Scan type : Progressive
Bits/(Pixel*Frame) : 0.197
Stream size : 425 MiB (77%)
Writing library : XviD 1.2.1 (UTC 2008-12-04)
Audio #1
ID : 1
Format : MPEG Audio
Format version : Version 1
Format profile : Layer 3
Format_Settings_Mode : Joint stereo
Codec ID : 55
Codec ID/Hint : MP3
Duration : 43mn 45s
Bit rate mode : Constant
Bit rate : 192 Kbps
Channel(s) : 2 channels
Sampling rate : 48.0 KHz
Stream size : 60.1 MiB (11%)
Alignment : Aligned on interleaves
Interleave, duration : 42 ms (1.00 video frame)
Interleave, preload duration : 504 ms
Audio #2
ID : 2
Format : MPEG Audio
Format version : Version 1
Format profile : Layer 3
Format_Settings_Mode : Joint stereo
Format_Settings_ModeExtension : MS Stereo
Codec ID : 55
Codec ID/Hint : MP3
Duration : 43mn 45s
Bit rate mode : Constant
Bit rate : 192 Kbps
Channel(s) : 2 channels
Sampling rate : 48.0 KHz
Stream size : 60.1 MiB (11%)
Alignment : Aligned on interleaves
Interleave, duration : 42 ms (1.00 video frame)
Interleave, preload duration : 504 ms
Writing library : LAME3.98r
Encoding settings : -m j -V 4 -q 2 -lowpass 18.6 -b 192


Зов крови скачать торрент


pb.wtf



Скачать Зов крови через торрент http://i29.fastpic.ru/big/2011/1010/41/91cf8dc6fc71e8a20b1988c492b8bb41.png Скачать фильм Зов крови через торрент бесплантно в хорошем качестве Описание: Бо — суккуб. Выросшая в человеческой семье она не знала о своей истинной природе, считая себя фриком, а неумение контролировать ... 9.3 10 12
Info! Золотая раздача, скачанное не засчитывается.
Торрент: Зарегистрирован [2013-04-15 15:16] · скачан: 118 раз
Статус: √ проверено
Размер: 6.98 GB
Как cкачать? Как скачать Зов крови через торрент | qTorrent

% Раздел Тема Автор DL S | L
Зарубежные сериалы [ 109.7 GB ] Зов Крови / Lost Girl / Сезон: 1 / Серии: 1-13 из 13 [2010 BD Remux 1080p] MVO [AXN SciFi] bober100 Скачать
1 | 0
Зарубежные сериалы [ 4.32 GB ] Зов крови / Lost Girl / Сезон: 5 / Серии: 1-8 из 16 [2014 WEB-DLRip] DVO + Original Assasinca Скачать
1 | 0
Зарубежные сериалы [ 11.82 GB ] Зов крови / Lost Girl [2010 WEB-DLRip двухголосый NewStudio] qwerty411 Скачать
1 | 0
Зарубежные сериалы [ 6.98 GB ] Зов крови / Lost Girl / Сезон: 4 / Серии: 1-13 из 13 [2013 WEB-DLRip] DVO + Original Assasinca Скачать
1 | 0
Зарубежные сериалы [ 6.98 GB ] Зов крови / Lost Girl [2010 WEB-DLRip двухголосый NewStudio] qwerty411 Скачать
1 | 0
Зарубежные сериалы [ 4.4 GB ] Потерянная / Зов крови / Lost Girl / Сезон: 1 [2010 HDTVRip Любительский ] markfiter Скачать
1 | 0

28-11-2019 20:33  

Отключить всю рекламу на сайте

    Дорогой пользователь! Огромная просьба, поблагодарите релизера, оцените раздачу и оставьте свои комментарий, если Вы скачали Зов крови через торрент бесплатно! Внесите свою лепту в развитие PiratBit!
    Комментировать посты могут только пользователи прошедшие не сложную регистрацию
    Показать сообщения:    

    Зов крови через торрент
    Скачать бесплатно Зов крови
    Зов крови скачать торрент
    Зов крови смотреть онлайн
    Cкачать фильм Зов крови бесплатно
    Зов крови скачать торрент в хорошем качестве
    Зов крови смотреть онлайн бесплатно в хорошем качестве


    Вы не можете начинать темы
    Вы не можете отвечать на сообщения
    Вы не можете редактировать свои сообщения
    Вы не можете удалять свои сообщения
    Вы не можете голосовать в опросах
    Вы не можете прикреплять файлы к сообщениям
    Вы можете скачивать файлы