Мега распродажа FORZA HORIZON 4 ULTIMATE+ВСЕ DLC+ОНЛАЙН всего за 499р. 349 руб. (супер цена). Внимание количество ограничено!!!

Лицензия

30

iTunes

мы

iTunes

1

1 сезон

Чернобыль

1 сезон

Ральф против интернета

MVO

Покемон. Детектив Пикачу

8 сезон

Игра престолов

iTunes

1+1

ИГРА 18+

pack

ВАЖНО

!!Акция!!

Alien_RageХит недели

RePack

Resident Evil 21
pack

RePack

Metro:Exodus

!!Акция!!

Alien_Rage

RePack

fifa19

RePack

Assassins Creed: Odyssey

RePack

NEED FOR SPEED™ PAYBACK

3 сезон

9 сезон

Бесстыжие 9 сезон

Все сериалы

все сериалы на PB.wtf

RePack

FAR CRY 5
Ребята, катастрофически не хватает 2730р. для оплаты серверов за МАЙ (всвязи с блокировками трафик упал в 3 раза), 1-2р., выручайте.
  

Тело Дженнифер / Jennifer's Body (Карин Кусама) [2009 г., ужасы, комедия, HDRip, Дубляж + Оригинал] pb.wtf

Тело Дженнифер через торрент pb.wtf

Размер: 2.05 GB | Добавлен: 6 лет 2 мес. назад | Торрент скачан:197 раз
Скачать  

15-04-2013 16:26 Тело Дженнифер Скачать торрент  

Тело Дженнифер / Jennifer's Body
Год выпуска: 2009
Страна: США
Жанр: ужасы, комедия,
Продолжительность: 01:42:21
Перевод: Дубляж, Оригинал (английский)
Субтитры: Русские, английские

Режиссер: Карин Кусама
Продюссер: Дэн Дубицки, Мэйсон Новик, Джейсон Райтман
Сценарий: Диабло Коуди

Бюджет: $16 000 000
Премьера в мире: 10 сентября 2009



В ролях: Меган Фокс, Аманда Сэйфрид, Джонни Симмонс, Адам Броди, Сэл Кортез, Райан Ливайн, Хуан Ридингер, Колин Аски, Крис Прэтт, Джуно Радделл,

Описание: Захолустный американский городок замер от ужаса: в Главную героиню — участницу команды болельщиц — вселился бес, и она, по никому неизвестным причинам, убивает парней. На хрупкие плечи ее лучшей подруги ложится непосильная ноша — она должна найти способ остановить адски разбушевавшуюся убийцу.

Качество: HDRip
Формат: AVI
Видео кодек: XviD
Аудио кодек: AC3
Видео: 720x384 (1.88:1), 23.976 fps, XviD build 50 ~1952 kbps avg, 0.29 bit/pixel
Аудио#1: 48 kHz, AC3 Dolby Digital, 6 ch, ~448.00 kbps avg | Дубляж
Аудио#2: 48 kHz, AC3 Dolby Digital, 6 ch, ~448.00 kbps avg | Оригинал (английский)
скриншот   скриншот   скриншот  





Format : AVI
Format/Info : Audio Video Interleave
Format profile : OpenDML
File size : 2.05 GiB
Duration : 1h 42mn
Overall bit rate : 2 867 Kbps
Writing application : VirtualDubMod 1.5.10.2 (build 2540/release)
Writing library : VirtualDubMod build 2540/release

Video
ID : 0
Format : MPEG-4 Visual
Format profile : Advanced Simple@L5
Format settings, BVOP : 1
Format settings, QPel : No
Format settings, GMC : No warppoints
Format settings, Matrix : Custom
Codec ID : XVID
Codec ID/Hint : XviD
Duration : 1h 42mn
Bit rate : 1 953 Kbps
Width : 720 pixels
Height : 384 pixels
Display aspect ratio : 1.85:1
Frame rate : 23.976 fps
Color space : YUV
Chroma subsampling : 4:2:0
Bit depth : 8 bits
Scan type : Progressive
Compression mode : Lossy
Bits/(Pixel*Frame) : 0.295
Stream size : 1.40 GiB (68%)
Writing library : XviD 1.2.1 (UTC 2008-12-04)

Audio #1
ID : 1
Format : AC-3
Format/Info : Audio Coding 3
Mode extension : CM (complete main)
Format settings, Endianness : Big
Codec ID : 2000
Duration : 1h 42mn
Bit rate mode : Constant
Bit rate : 448 Kbps
Channel(s) : 6 channels
Channel positions : Front: L C R, Side: L R, LFE
Sampling rate : 48.0 KHz
Bit depth : 16 bits
Compression mode : Lossy
Stream size : 328 MiB (16%)
Alignment : Split accross interleaves
Interleave, duration : 42 ms (1.00 video frame)
Interleave, preload duration : 500 ms

Audio #2
ID : 2
Format : AC-3
Format/Info : Audio Coding 3
Mode extension : CM (complete main)
Format settings, Endianness : Big
Codec ID : 2000
Duration : 1h 42mn
Bit rate mode : Constant
Bit rate : 448 Kbps
Channel(s) : 6 channels
Channel positions : Front: L C R, Side: L R, LFE
Sampling rate : 48.0 KHz
Bit depth : 16 bits
Compression mode : Lossy
Stream size : 328 MiB (16%)
Alignment : Split accross interleaves
Interleave, duration : 42 ms (1.00 video frame)
Interleave, preload duration : 500 ms


Тело Дженнифер скачать торрент


pb.wtf



Скачать Тело Дженнифер через торрент http://pic.kartinco.top/images/2/bux1v11jxe.jpg Скачать фильм Тело Дженнифер через торрент бесплантно в хорошем качестве Описание: Захолустный американский городок замер от ужаса: в Главную героиню — участницу команды болельщиц — вселился бес, и она, по никому ... 9.7 10 18
Info! Золотая раздача, скачанное не засчитывается.
Торрент: Зарегистрирован [2013-04-15 16:26] · скачан: 197 раз
Статус: √ проверено
Размер: 2.05 GB
Как cкачать? Как скачать Тело Дженнифер через торрент | qTorrent



Последний раз редактировалось: KaZtOrChAnIn (2013-04-15 17:02), всего редактировалось 2 раз(а)


>> Регистрируемся здесь <<






Отзывы и комментарии о схеме читаем и пишем здесь: ---> Отзывы и комментарии о схеме

Новые благодарочки в телеграм довольных пользователей:
скриншот   скриншот   скриншот   скриншот   скриншот

15-04-2013 16:55 Тело Дженнифер Скачать торрент  

Постер максимум 700х700 пикс.pb.wtf



15-04-2013 17:16 Тело Дженнифер Скачать торрент  

Хорошо, сейчас исправлю.pb.wtf



15-04-2013 18:13 Тело Дженнифер Скачать торрент  

Круть. Я бы про него и не вспомнил бы. Поглазеем на Фокс )pb.wtf



    Дорогой пользователь! Огромная просьба, поблагодарите релизера, оцените раздачу и оставьте свои комментарий, если Вы скачали Тело Дженнифер через торрент бесплатно! Внесите свою лепту в развитие PiratBit!
    Комментировать посты могут только пользователи прошедшие не сложную регистрацию
    Показать сообщения:    

    Тело Дженнифер через торрент
    Скачать бесплатно Тело Дженнифер
    Тело Дженнифер скачать торрент
    Тело Дженнифер смотреть онлайн
    Cкачать фильм Тело Дженнифер бесплатно
    Тело Дженнифер скачать торрент в хорошем качестве
    Тело Дженнифер смотреть онлайн бесплатно в хорошем качестве


    Вы не можете начинать темы
    Вы не можете отвечать на сообщения
    Вы не можете редактировать свои сообщения
    Вы не можете удалять свои сообщения
    Вы не можете голосовать в опросах
    Вы не можете прикреплять файлы к сообщениям
    Вы можете скачивать файлы