2 сезон

iTunes

1 сезон

1

iTunes

iTunes

iTunes

1 сезон

RePack

30

ИГРА 18+

pack

ВАЖНО

!!Акция!!

Alien_RageХит недели

RePack

MK11
pack

Забери бонус

RePack

jed

!!Акция!!

Alien_Rage

RePack

fifa19

RePack

Assassins Creed: Odyssey

RePack

NEED FOR SPEED™ PAYBACK

4 сезон

9 сезон

Бесстыжие 9 сезон

Все сериалы

все сериалы на PB.wtf

RePack

FAR CRY 5
  

Задания особой важности. Операция «Тайфун» / Серии: 1-4 из 4 (Петр Амелин) [2013, приключения, военный, DVD9] R5 pb.wtf

Задания особой важности. Операция «Тайфун» через торрент pb.wtf

Размер: 7.17 GB | Добавлен: 7 лет 6 мес. назад | Торрент скачан:375 раз
Скачать  

15-04-2013 22:04 Задания особой важности. Операция «Тайфун» Скачать торрент  


Задания особой важности. Операция «Тайфун»
Страна: Россия
Студия: Грин-фильм
Жанр: приключения, военный
Год выпуска: 2013
Мировая премьера: 14 апреля 2013
Дата выхода DVD: 16 апреля 2013
Продолжительность: 352 мин.
Перевод: Оригинал [Лицензия]
Субтитры: нет
Оригинальная аудиодорожка: русский
Режиссер: Петр Амелин
В ролях: Богдан Эдуард Трухменёв, Мария Куликова, Сергей Баталов, Марина Казанкова, Андрей Аксенов, Елена Радевич, Андрей Павловец, Александр Ленин, Дмитрий Дячук, Даниил Воропаев...
Описание: Сериал рассказывает о группе советских разведчиков-диверсантов, выполняющих во время Второй мировой войны задания особой важности. Первое задание — уничтожить стратегические склады горючего, захваченные немцами во время стремительного наступления. Второе — уничтожить лабораторию, в которой немцами разрабатываются прототипы невидимых для радаров сверхзвуковых самолетов. Выполнение заданий сильно усложняет тот факт, что в первоначальном составе группы 3 мужчины и 2 женщины — без роковых любовных треугольников тут не обойтись…
Бонусы: нет

Релиз группы:
Качество: DVD9 R5
Формат: DVD-Video
Видео кодек: MPEG2
Аудио кодек: AC3
Видео: PAL 16:9 (720x576(0.521)) MPEG Video, 25,000 кадр/сек, 5401 Кбит/сек
Аудио: Russian (Dolby AC3, 2 ch) 192 Кбит/сек, 48,0 КГц



Title: Zadanija.osoboj.vazhnosti..Operacija.Tajfun.2013.DVD9
Size: 7.17 Gb ( 7 520 580,00 KBytes ) - DVD-9
Enabled regions: 1, 2, 3, 4, 5, 6, 7, 8

VTS_01 :
Play Length: 00:00:25+{00:00:25}+{00:00:25}
Video: PAL 4:3 (720x576) VBR
Audio:
Russian (Dolby AC3, 6 ch)
English (Dolby AC3, 6 ch)
English (Dolby AC3, 6 ch)

VTS_02 :
Play Length: 00:43:40
Video: PAL 16:9 (720x576) VBR, Auto Pan&Scan, Auto Letterboxed
Audio:
Russian (Dolby AC3, 2 ch)

VTS_03 :
Play Length: 00:44:27
Video: PAL 16:9 (720x576) VBR, Auto Pan&Scan, Auto Letterboxed
Audio:
Russian (Dolby AC3, 2 ch)

VTS_04 :
Play Length: 00:44:50
Video: PAL 16:9 (720x576) VBR, Auto Pan&Scan, Auto Letterboxed
Audio:
Russian (Dolby AC3, 2 ch)

VTS_05 :
Play Length: 00:44:49
Video: PAL 16:9 (720x576) VBR, Auto Pan&Scan, Auto Letterboxed
Audio:
Russian (Dolby AC3, 2 ch)

* Menus Information *

VIDEO_TS Menu
Video:
PAL 4:3 (720x576) VBR
English Language Unit :
Title Menu

VTS_01 Menu
Video:
PAL 4:3 (720x576) VBR
Audio:
Not specified (Dolby AC3, 2 ch)
English Language Unit :
Root Menu
Chapter (PTT) Menu

VTS_02 Menu
Video:
PAL 4:3 (720x576) VBR
English Language Unit :
Root Menu
Chapter (PTT) Menu

VTS_03 Menu
Video:
PAL 4:3 (720x576) VBR
English Language Unit :
Root Menu
Chapter (PTT) Menu

VTS_04 Menu
Video:
PAL 4:3 (720x576) VBR
English Language Unit :
Root Menu
Chapter (PTT) Menu

VTS_05 Menu
Video:
PAL 4:3 (720x576) VBR
English Language Unit :
Root Menu
Chapter (PTT) Menu
Общее
Полное имя : M:Новинки 2013Zadanija.osoboj.vazhnosti..Operacija.Tajfun.2013.DVD9VIDEO_TSVTS_03_1.VOB
Формат : MPEG-PS
Размер файла : 1024 Мбайт
Продолжительность : 25 м.
Режим общего битрейта : Переменный
Общий поток : 5707 Кбит/сек

Видео
Идентификатор : 224 (0xE0)
Формат : MPEG Video
Версия формата : Version 2
Профиль формата : Main@Main
Параметр BVOP формата : Да
Параметр матрицы формата : По умолчанию
Параметр GOP формата : M=3, N=12
Продолжительность : 25 м.
Вид битрейта : Переменный
Битрейт : 5401 Кбит/сек
Максимальный битрейт : 8000 Кбит/сек
Ширина : 720 пикселей
Высота : 576 пикселей
Соотношение сторон : 16:9
Частота кадров : 25,000 кадров/сек
Стандарт вещания : PAL
Цветовое пространство : YUV
Субдискретизация насыщенности : 4:2:0
Битовая глубина : 8 бит
Тип развёртки : Чересстрочная
Порядок развёртки : Верхнее поле первое
Метод сжатия : С потерями
Бит/(Пиксели*Кадры) : 0.521
Размер потока : 969 Мбайт (95%)

Аудио
Идентификатор : 189 (0xBD)-128 (0x80)
Формат : AC-3
Формат/Информация : Audio Coding 3
Расширение режима : CM (complete main)
Параметр Endianness формата : Big
Режим смешивания : DVD-Video
Продолжительность : 25 м.
Вид битрейта : Постоянный
Битрейт : 192 Кбит/сек
Каналы : 2 канала
Расположение каналов : Front: L R
Частота : 48,0 КГц
Битовая глубина : 16 бит
Метод сжатия : С потерями
Размер потока : 34,4 Мбайт (3%)










pb.wtf



Скачать Задания особой важности. Операция «Тайфун» через торрент http://s017.radikal.ru/i422/1304/ee/61f97c348833.jpg Скачать фильм Задания особой важности. Операция «Тайфун» через торрент бесплантно в хорошем качестве Описание: Сериал рассказывает о группе советских разведчиков-диверсантов, выполняющих во время Второй мировой войны задания особой ... 9.1 10 15
Info! Золотая раздача, скачанное не засчитывается.
Торрент: Зарегистрирован [2013-04-15 22:04] · скачан: 375 раз
Статус: √ проверено
Размер: 7.17 GB
Как cкачать? Как скачать Задания особой важности. Операция «Тайфун» через торрент | qTorrent

28-11-2019 20:33  

Отключить всю рекламу на сайте

    Дорогой пользователь! Огромная просьба, поблагодарите релизера, оцените раздачу и оставьте свои комментарий, если Вы скачали Задания особой важности. Операция «Тайфун» через торрент бесплатно! Внесите свою лепту в развитие PiratBit!
    Комментировать посты могут только пользователи прошедшие не сложную регистрацию
    Показать сообщения:    

    Задания особой важности. Операция «Тайфун» через торрент
    Скачать бесплатно Задания особой важности. Операция «Тайфун»
    Задания особой важности. Операция «Тайфун» скачать торрент
    Задания особой важности. Операция «Тайфун» смотреть онлайн
    Cкачать фильм Задания особой важности. Операция «Тайфун» бесплатно
    Задания особой важности. Операция «Тайфун» скачать торрент в хорошем качестве
    Задания особой важности. Операция «Тайфун» смотреть онлайн бесплатно в хорошем качестве


    Вы не можете начинать темы
    Вы не можете отвечать на сообщения
    Вы не можете редактировать свои сообщения
    Вы не можете удалять свои сообщения
    Вы не можете голосовать в опросах
    Вы не можете прикреплять файлы к сообщениям
    Вы можете скачивать файлы