1 сезон

3 сезон

iTunes

1

Line

MVO

iTunes

13

1 сезон

RePack

30

Deluxe

pack

Лицензия

ВАЖНО

ИГРА 18+

pack

RePack

MK11

RePack

jed

RePack

fifa19

RePack

RDR2

RePack

NEED FOR SPEED™ PAYBACK

4 сезон

9 сезон

Бесстыжие 9 сезон

Все сериалы

все сериалы на PB.wtf

RePack

FAR CRY 5

Anonymous, доброе утро, мы катастрофически не успеваем собрать деньги на оплату серверов, помогите нам пожалуйста 5,10,15р., для нас важна любая помощь . В качестве благодарности мы отключим Вам всю рекламу на сайте (укажите свой ник в строку Ваше имя)!

×
  
Magnet ссылка

Любовь – это всё, что тебе нужно / All you need is Love / Den skaldede frisør (Сюзанна Бир / Susanne Bier) [2012, мелодрама, комедия, DVD9] R5 pb.wtf

Любовь – это всё, что тебе нужно через торрент pb.wtf

Размер: 4.83 GB | Добавлен: 8 лет 3 мес. назад | Торрент скачан:34 раза
Скачать  

15-04-2013 22:27 Любовь – это всё, что тебе нужно Скачать торрент  


Любовь – это всё, что тебе нужно / All you need is Love / Den skaldede frisør
Страна: Дания, Швеция, Италия, Франция, Германия
Студия: arte, Film i Väst, Liberator Productions, Lumière & Company, Network Movie, Slot Machine, Teodora Film, ZDF, Zentropa International Köln, Zentropa International Sweden, Zentropa Productions
Жанр: мелодрама, комедия
Год выпуска: 2012
Мировая премьера: 2 сентября 2012
Российская премьера: 7 марта 2013
Дата выхода DVD: 9 апреля 2013
Дата выхода Blu-Ray: 9 апреля 2013
Продолжительность: 01:51:15
Перевод: Профессиональный (дублированный) [Лицензия]
Cубтитры: нет
Оригинальная аудиодорожка: нет
Режиссер: Сюзанна Бир / Susanne Bier
В ролях: Трине Дюрхольм, Пирс Броснан, Паприка Стеэн, Ким Бодния, Кристиан Шамбург-Мюллер, Себастьян Йессен, Молли Бликст Эгелинд, Стина Экблад, Бодиль Ёргенсон, Рикке Луиз Андерссон...
Описание: Филипп красив, богат и… одинок. Ида замужем, но ее супруг увлечен другой. Скоро они встретятся на свадьбе своих детей в одном из самых живописных городов мира -итальянском Сорренто. Знойные неаполитанские ночи, аромат лимонных деревьев и непередаваемая атмосфера праздника помогут вспомнить, что любовь — это все, что им нужно…
Бонусы: нет

Релиз группы:
Качество: DVD9 R5
Формат: DVD-Video
Видео кодек: MPEG2
Аудио кодек: AC3
Видео: PAL 16:9 (720x576(0.557)) MPEG Video, 25,000 кадр/сек, 5777 Кбит/сек
Аудио: Russian (Dolby AC3, 6 ch) 448 Кбит/сек, 48,0 КГц



Title: Ljubov.jeto.vsjo.chto.tebe.nuzhno.2012.DVD9
Size: 4.83 Gb ( 5 062 436,00 KBytes ) - DVD-9
Enabled regions: 1, 2, 3, 4, 5, 6, 7, 8

VTS_01 :
Play Length: 01:51:14
Video: PAL 16:9 (720x576) VBR, Auto Letterboxed
Audio:
Russian (Dolby AC3, 6 ch)

* Menus Information *

VIDEO_TS Menu
Video:
PAL 16:9 (720x576) VBR
Auto Letterboxed
Audio:
Not specified (Dolby AC3, 2 ch)
Russian Language Unit :
Title Menu

VTS_01 Menu
Video:
PAL 16:9 (720x576) VBR
Auto Letterboxed
Audio:
Not specified (Dolby AC3, 2 ch)
Russian Language Unit :
Root Menu
Общее
Полное имя : M:Новинки 2013Ljubov.jeto.vsjo.chto.tebe.nuzhno.2012.DVD9VIDEO_TSVTS_01_2.VOB
Формат : MPEG-PS
Размер файла : 1024 Мбайт
Продолжительность : 22 м.
Режим общего битрейта : Переменный
Общий поток : 6352 Кбит/сек

Видео
Идентификатор : 224 (0xE0)
Формат : MPEG Video
Версия формата : Version 2
Профиль формата : Main@Main
Параметр BVOP формата : Да
Параметр матрицы формата : Выборочная
Параметр GOP формата : M=3, N=15
Продолжительность : 22 м.
Вид битрейта : Переменный
Битрейт : 5777 Кбит/сек
Максимальный битрейт : 8000 Кбит/сек
Ширина : 720 пикселей
Высота : 576 пикселей
Соотношение сторон : 16:9
Частота кадров : 25,000 кадров/сек
Стандарт вещания : PAL
Цветовое пространство : YUV
Субдискретизация насыщенности : 4:2:0
Битовая глубина : 8 бит
Тип развёртки : Прогрессивная
Метод сжатия : С потерями
Бит/(Пиксели*Кадры) : 0.557
Размер потока : 931 Мбайт (91%)

Аудио
Идентификатор : 189 (0xBD)-128 (0x80)
Формат : AC-3
Формат/Информация : Audio Coding 3
Расширение режима : CM (complete main)
Параметр Endianness формата : Big
Режим смешивания : DVD-Video
Продолжительность : 22 м.
Вид битрейта : Постоянный
Битрейт : 448 Кбит/сек
Каналы : 6 каналов
Расположение каналов : Front: L C R, Side: L R, LFE
Частота : 48,0 КГц
Битовая глубина : 16 бит
Метод сжатия : С потерями
Задержка видео : -752 мс.
Размер потока : 72,2 Мбайт (7%)










pb.wtf



Скачать Любовь – это всё, что тебе нужно через торрент http://s43.radikal.ru/i099/1304/f6/235dd82ff283.jpg Скачать фильм Любовь – это всё, что тебе нужно через торрент бесплантно в хорошем качестве Описание: Филипп красив, богат и… одинок. Ида замужем, но ее супруг увлечен другой. Скоро они встретятся на свадьбе своих детей в одном из ... 10 10 4
Info! Золотая раздача, скачанное не засчитывается.
Торрент: Зарегистрирован [2013-04-15 22:27] · скачан: 34 раз
Статус: √ проверено
Размер: 4.83 GB
Как cкачать? Как скачать Любовь – это всё, что тебе нужно через торрент | UTorrent

28-11-2019 20:33  

Отключить всю рекламу на сайте

    Дорогой пользователь! Огромная просьба, поблагодарите релизера, оцените раздачу и оставьте свои комментарий, если Вы скачали Любовь – это всё, что тебе нужно через торрент бесплатно! Внесите свою лепту в развитие PiratBit!
    Комментировать посты могут только пользователи прошедшие не сложную регистрацию
    Показать сообщения:    

    Любовь – это всё, что тебе нужно через торрент
    Скачать бесплатно Любовь – это всё, что тебе нужно
    Любовь – это всё, что тебе нужно скачать торрент
    Любовь – это всё, что тебе нужно смотреть онлайн
    Cкачать фильм Любовь – это всё, что тебе нужно бесплатно
    Любовь – это всё, что тебе нужно скачать торрент в хорошем качестве
    Любовь – это всё, что тебе нужно смотреть онлайн бесплатно в хорошем качестве


    Вы не можете начинать темы
    Вы не можете отвечать на сообщения
    Вы не можете редактировать свои сообщения
    Вы не можете удалять свои сообщения
    Вы не можете голосовать в опросах
    Вы не можете прикреплять файлы к сообщениям
    Вы можете скачивать файлы