Ссылка на приватное зеркало нашего сайта всего за 1$. Внимание количество ограничено!!!

2 сезон

iTunes

1 сезон

1

2 сезон

2 сезон

iTunes

1 сезон

RePack

30

Ultimate

ВАЖНО

ИГРА 18+

pack

RePack

MK11
pack

Забери бонус

RePack

jed

!!Акция!!

Alien_Rage

RePack

fifa19

RePack

Assassins Creed: Odyssey

RePack

NEED FOR SPEED™ PAYBACK

4 сезон

9 сезон

Бесстыжие 9 сезон

Все сериалы

все сериалы на PB.wtf

RePack

FAR CRY 5
  

Американцы / The Americans (Адам Аркин) (Сезон: 1, серии 1-13 из 13) [2013 г., триллер, драма, криминал, детектив, WEB-DLRip, Профессиональный двухголосый, Кубик в Кубе] pb.wtf

Американцы через торрент pb.wtf

Размер: 6.45 GB | Добавлен: 7 лет 6 мес. назад | Торрент скачан:555 раз
Скачать  

16-04-2013 08:08 Американцы Скачать торрент  

Американцы / The Americans
Год выпуска: 2013
Страна: США
Жанр: триллер, драма, криминал, детектив,
Продолжительность: 60 мин. / 01:00
Перевод: Профессиональный двухголосый, Кубик в Кубе

Режиссер: Адам Аркин
Продюссер: Адам Аркин, Митч Энджел, Джастин Фалвей
Сценарий: Джозеф Вайсберг, Джошуа Брэнд, Джоэль Филдс

Мировой рейтинг IMDB 8.10 (6 958)


В ролях: Кери Рассел, Мэттью Риз, Холли Тейлор, Кейдрич Селлати, Ноа Эммерик, Ричард Томас, Максимилианно Эрнандез, Аннет Махендру, Сьюзэн Миснер, Элисон Райт,

Описание: История о сложном браке двух агентов КГБ, которые под видом американцев заселяются в пригород Вашингтона сразу после того, как президентом избирают Рейгана. Подставной брак Филлипа и Элизабет с каждым днем становится все более настоящим и эмоциональным, несмотря на эскалацию холодной войны и опасные отношения, которые они должны поддерживать с сетью шпионов и информаторов. Напряжение нарастает, когда появляется новый сосед Стэн, агент ФБР, который работает в контрразведке.

Качество: WEB-DLRip
Формат: AVI
Видео кодек: XviD
Аудио кодек: MP3
Видео: 624x352 (1.78:1), 23.976 fps, XviD MPEG-4 ~1000 kbps avg, 0.195 bit/pixel
Аудио#1: 48 kHz, MPEG Layer 3, 2 ch, ~224.00 kbps avg
Аудио#2: 48 kHz, MPEG Layer 3, 2 ch, ~224.00 kbps avg
Релиз от: Кубик в Кубе

General
Complete name : F:Фтп 2WorkKybik v KybeThe Americans Season 1 Kybik v KybeThe.Americans.s01e01.rus.eng.Kybik.v.Kybe.avi
Format : AVI
Format/Info : Audio Video Interleave
File size : 743 MiB
Duration : 1h 11mn
Overall bit rate : 1 462 Kbps
Writing application : VirtualDubMod 1.5.10.2 (build 2540/release)
Writing library : VirtualDubMod build 2540/release
Video
ID : 0
Format : MPEG-4 Visual
Format profile : Advanced Simple@L5
Format settings, BVOP : 1
Format settings, QPel : No
Format settings, GMC : No warppoints
Format settings, Matrix : Default (H.263)
Codec ID : XVID
Codec ID/Hint : XviD
Duration : 1h 11mn
Bit rate : 1 000 Kbps
Width : 624 pixels
Height : 352 pixels
Display aspect ratio : 16:9
Frame rate : 23.976 fps
Color space : YUV
Chroma subsampling : 4:2:0
Bit depth : 8 bits
Scan type : Progressive
Compression mode : Lossy
Bits/(Pixel*Frame) : 0.190
Stream size : 508 MiB (68%)
Writing library : XviD 65
Audio #1
ID : 1
Format : MPEG Audio
Format version : Version 1
Format profile : Layer 3
Codec ID : 55
Codec ID/Hint : MP3
Duration : 1h 11mn
Bit rate mode : Constant
Bit rate : 224 Kbps
Channel(s) : 2 channels
Sampling rate : 48.0 KHz
Compression mode : Lossy
Stream size : 114 MiB (15%)
Alignment : Aligned on interleaves
Interleave, duration : 42 ms (1.00 video frame)
Interleave, preload duration : 504 ms
Audio #2
ID : 2
Format : MPEG Audio
Format version : Version 1
Format profile : Layer 3
Mode : Joint stereo
Mode extension : MS Stereo
Codec ID : 55
Codec ID/Hint : MP3
Duration : 1h 11mn
Bit rate mode : Constant
Bit rate : 224 Kbps
Channel(s) : 2 channels
Sampling rate : 48.0 KHz
Compression mode : Lossy
Stream size : 114 MiB (15%)
Alignment : Aligned on interleaves
Interleave, duration : 42 ms (1.00 video frame)
Interleave, preload duration : 504 ms
Writing library : LAME3.99r
Encoding settings : -m j -V 4 -q 2 -lowpass 19.4 -b 224


Американцы скачать торрент


pb.wtf



Скачать Американцы через торрент http://i54.fastpic.ru/big/2013/0225/b4/8f01da6cb3bdb62c35c549a282d229b4.jpg Скачать фильм Американцы через торрент бесплантно в хорошем качестве Описание: История о сложном браке двух агентов КГБ, которые под видом американцев заселяются в пригород Вашингтона сразу после того, как ... 10 10 11
Info! Золотая раздача, скачанное не засчитывается.
Торрент: Зарегистрирован [2013-05-15 07:46] · скачан: 555 раз
Статус: √ проверено
Размер: 6.45 GB
Как cкачать? Как скачать Американцы через торрент | qTorrent

% Раздел Тема Автор DL S | L
Зарубежные сериалы [ 31.36 GB ] Американцы / The Americans / Сезон: 5 / Серии: 1-13 из 13 [2017 WEBRip 720p] DVO [Кубик в Кубе] bober100 Скачать
1 | 0
Зарубежные сериалы [ 11.96 GB ] Американцы / The Americans / Сезон: 5 / Серии: 1-13 из 13 [2017 WEBRip] DVO [Кубик в Кубе] bober100 Скачать
1 | 0
Зарубежные сериалы [ 43.95 GB ] Американцы / The Americans / Сезон: 1-6 / Серии 1-75 из 75 [2013-2018 WEB-DLRip] [MVO] killermax2013 Скачать
1 | 0
Зарубежные сериалы [ 21.19 GB ] Американцы / The Americans / Сезон: 1 / Серии: 1-13 из 13 [2013 WEB-DL 720p] MVO [NewStudio] bober100 Скачать
1 | 0
Зарубежные сериалы [ 11.76 GB ] Американцы / The Americans / Сезон: 5 / Серии 1-13 из 13 [2017 WEB-DLRip-AVC] MVO [NewStudio] GEKADOL Скачать
1 | 0
T Релизы по Парсеру [Игры, Сериалы и Фильмы и другое...] [ 19.96 GB ] Американцы / The Americans [S04] WEB-DL 720p / NewStudio shuller Скачать
1 | 0
Зарубежные сериалы [ 8.21 GB ] Американцы / The Americans / Сезон: 1 / Серии 13 из 13 [2013 WEB-DLRip] MVO wekotila Скачать
1 | 0


Последний раз редактировалось: qwerty411 (2013-05-15 07:46), всего редактировалось 2 раз(а)

28-11-2019 20:33  

Отключить всю рекламу на сайте

16-04-2013 16:58 Американцы Скачать торрент  

сериал суперрррррррррр все советую.pb.wtf



24-04-2013 09:35 Американцы Скачать торрент  

Раздача обновлена!
Добавлена 10 серия!
pb.wtf



15-05-2013 07:47 Американцы Скачать торрент  

Раздача обновлена!
Добавлены серии с 11 по 13!
pb.wtf



15-05-2013 13:43 Американцы Скачать торрент  

а будет еще сезон кто знает??????????????????7pb.wtf



04-08-2013 11:45 Американцы Скачать торрент  

А дайте пожалста скорости!pb.wtf



11-08-2013 10:48 Американцы Скачать торрент  

Нету скорости! 98 % скачал, уже неделю докачать не могу. Кто-нибудь, плиз!!!pb.wtf



21-03-2014 16:47 Американцы Скачать торрент  

Спасибо за релиз beerpb.wtf



    Дорогой пользователь! Огромная просьба, поблагодарите релизера, оцените раздачу и оставьте свои комментарий, если Вы скачали Американцы через торрент бесплатно! Внесите свою лепту в развитие PiratBit!
    Комментировать посты могут только пользователи прошедшие не сложную регистрацию
    Показать сообщения:    

    Американцы через торрент
    Скачать бесплатно Американцы
    Американцы скачать торрент
    Американцы смотреть онлайн
    Cкачать фильм Американцы бесплатно
    Американцы скачать торрент в хорошем качестве
    Американцы смотреть онлайн бесплатно в хорошем качестве


    Вы не можете начинать темы
    Вы не можете отвечать на сообщения
    Вы не можете редактировать свои сообщения
    Вы не можете удалять свои сообщения
    Вы не можете голосовать в опросах
    Вы не можете прикреплять файлы к сообщениям
    Вы можете скачивать файлы