2 сезон

iTunes

MVO

1

2 сезон

iTunes

iTunes

1 сезон

RePack

30

Новинка

ВАЖНО

ИГРА 18+

pack

RePack

MK11
pack

Легкие деньги

RePack

jed

RePack

fifa19

RePack

RDR2

RePack

NEED FOR SPEED™ PAYBACK

4 сезон

9 сезон

Бесстыжие 9 сезон

Все сериалы

все сериалы на PB.wtf

RePack

FAR CRY 5

Anonymous, доброй ночи, мы не успеваем собрать деньги на оплату серверов за декабрь и январь, помогите нам пожалуйста в это трудное время. В качестве благодарности мы отключим Вам всю рекламу на сайте (укажите свой ник в строку Ваше имя)!

×
  
Magnet ссылка

Тихая гавань / Safe Haven (Лассе Халльстрём) [2013 г., триллер, драма, мелодрама, детектив, HDRip, Дубляж] pb.wtf

Тихая гавань через торрент pb.wtf

Размер: 1.46 GB | Добавлен: 7 лет 9 мес. назад | Торрент скачан:471 раз
Скачать  

16-04-2013 08:13 Тихая гавань Скачать торрент  

Тихая гавань / Safe Haven
Год выпуска: 2013
Страна: США
Жанр: триллер, драма, мелодрама, детектив,
Продолжительность: 01:55:32
Перевод: Профессиональный (полное дублирование)
Субтитры: Отсутствуют

Режиссер: Лассе Халльстрём
Продюссер: Марти Бауэн, Вик Годфри, Райан Кэвэна
Сценарий: Лесли Боэм, Дэна Стивенс, Николас Спаркс

Бюджет: $28 000 000
Премьера в мире: 13 февраля 2013



В ролях: Джулианна Хаф, Джош Дюамель, Дэвид Лайонс, Коби Смолдерс, Мими Кирклэнд, Ной Ломакс, Ред Уэст, Робин Маллинз, Ирен Циглер, Рик Рейц, Инна Королёва, Ульяна Иващенко,Описание: Кэти много лет страдала от жестокости мужа. Потеряв надежду на спасение, она совершила отчаянный побег и обрела «тихую гавань» в маленьком спокойном южном городке. Но готова ли Кэти к новым отношениям? Способна ли вновь поверить мужчине, понять его и полюбить? Даже если речь идет о таком обаятельном человеке, как молодой вдовец Алекс Уитли. Алекс и Кэти идут по тонкому льду неизвестности, — а между тем муж Кэти уже начал ее поиски.Качество: HDRip
Формат: AVI
Видео кодек: XviD
Аудио кодек: AC3
Видео: 720x400 (16:9), 23.976 fps, XviD ~1348 kbps avg, 0.195 bit/pixel
Аудио#1: 48 kHz, AC3 Dolby Digital, 3/2 (L,C,R,l,r) + LFE ch, ~448.00 kbps avg
скриншот   скриншот   скриншот  





General
Format : AVI
Format/Info : Audio Video Interleave
File size : 1.46 GiB
Duration : 1h 55mn
Overall bit rate : 1 805 Kbps
Writing application : VirtualDubMod 1.5.10.3 (build 2550/release)
Writing library : VirtualDubMod build 2550/release

Video
ID : 0
Format : MPEG-4 Visual
Format profile : Advanced Simple@L5
Format settings, BVOP : 1
Format settings, QPel : No
Format settings, GMC : No warppoints
Format settings, Matrix : Custom
Codec ID : XVID
Codec ID/Hint : XviD
Duration : 1h 55mn
Bit rate : 1 348 Kbps
Width : 720 pixels
Height : 400 pixels
Display aspect ratio : 16:9
Frame rate : 23.976 fps
Color space : YUV
Chroma subsampling : 4:2:0
Bit depth : 8 bits
Scan type : Progressive
Compression mode : Lossy
Bits/(Pixel*Frame) : 0.195
Stream size : 1.09 GiB (75%)
Writing library : XviD 1.2.1 (UTC 2008-12-04)

Audio
ID : 1
Format : AC-3
Format/Info : Audio Coding 3
Mode extension : CM (complete main)
Codec ID : 2000
Duration : 1h 55mn
Bit rate mode : Constant
Bit rate : 448 Kbps
Channel(s) : 6 channels
Channel positions : Front: L C R, Side: L R, LFE
Sampling rate : 48.0 KHz
Bit depth : 16 bits
Compression mode : Lossy
Stream size : 370 MiB (25%)
Alignment : Split accross interleaves
Interleave, duration : 42 ms (1.00 video frame)
Interleave, preload duration : 500 ms


Тихая гавань скачать торрент


pb.wtf



Скачать Тихая гавань через торрент https://pic.kartinco.top/images/2/ooejjxidw4.jpg Скачать фильм Тихая гавань через торрент бесплантно в хорошем качестве Описание: Кэти много лет страдала от жестокости мужа. Потеряв надежду на спасение, она совершила отчаянный побег и обрела «тихую гавань» в ... 9.4 10 19
Info! Золотая раздача, скачанное не засчитывается.
Торрент: Зарегистрирован [2013-04-16 08:13] · скачан: 471 раз
Статус: √ проверено
Размер: 1.46 GB
Как cкачать? Как скачать Тихая гавань через торрент | UTorrent

% Раздел Тема Автор DL S | L
Фильмы (Blu-ray, BD-Remux, HDDVD) [ 37.79 GB ] Тихая гавань / Safe Haven [2013 Blu-ray 1080p от NovaLan / US Transfer] DUB Ворон Скачать
1 | 0
Фильмы 2013 [DVDrip, WEB-DLRip, HDrip] [ 1.46 GB ] Тихая гавань / Safe Haven [2013 DVDRip] DUB [ лицензия ] Ворон Скачать
1 | 0
Фильмы 2013 [DVDrip, WEB-DLRip, HDrip] [ 2.05 GB ] Тихая гавань / Safe Haven [2013 DVDRip лицензия] 1mpulse2k20 Скачать
1 | 0
Фильмы 2013 [DVDrip, WEB-DLRip, HDrip] [ 746 MB ] Тихая гавань / Safe Haven [2013 DVDRip лицензия] Espacio Скачать
1 | 0
Фильмы (DVD фильмы) [ 4.36 GB ] Тихая гавань / Safe Haven [2013 DVD5] R5 voovaz Скачать
1 | 0

28-11-2019 20:33  

Отключить всю рекламу на сайте

    Дорогой пользователь! Огромная просьба, поблагодарите релизера, оцените раздачу и оставьте свои комментарий, если Вы скачали Тихая гавань через торрент бесплатно! Внесите свою лепту в развитие PiratBit!
    Комментировать посты могут только пользователи прошедшие не сложную регистрацию
    Показать сообщения:    

    Тихая гавань через торрент
    Скачать бесплатно Тихая гавань
    Тихая гавань скачать торрент
    Тихая гавань смотреть онлайн
    Cкачать фильм Тихая гавань бесплатно
    Тихая гавань скачать торрент в хорошем качестве
    Тихая гавань смотреть онлайн бесплатно в хорошем качестве


    Вы не можете начинать темы
    Вы не можете отвечать на сообщения
    Вы не можете редактировать свои сообщения
    Вы не можете удалять свои сообщения
    Вы не можете голосовать в опросах
    Вы не можете прикреплять файлы к сообщениям
    Вы можете скачивать файлы