Ссылка на приватное зеркало нашего сайта всего за 1$. Внимание количество ограничено!!!

2 сезон

iTunes

1 сезон

1

2 сезон

2 сезон

iTunes

1 сезон

RePack

30

Новинка

ВАЖНО

ИГРА 18+

pack

RePack

MK11
pack

Забери бонус

RePack

jed

!!Акция!!

Alien_Rage

RePack

fifa19

RePack

Assassins Creed: Odyssey

RePack

NEED FOR SPEED™ PAYBACK

4 сезон

9 сезон

Бесстыжие 9 сезон

Все сериалы

все сериалы на PB.wtf

RePack

FAR CRY 5
  

Темное дитя / Orphan Black (Джон Фоусет, Т.Дж. Скотт) (Сезон: 1, серии 1-10 из 10) [2013 г., фантастика, боевик, драма, WEB-DLRip, MVO, BaibaKo] pb.wtf

Темное дитя через торрент pb.wtf

Размер: 4.42 GB | Добавлен: 7 лет 5 мес. назад | Торрент скачан:184 раза
Скачать  

16-04-2013 08:31 Темное дитя Скачать торрент  

Темное дитя / Orphan Black
Год выпуска: 2013
Страна: Канада
Жанр: фантастика, боевик, драма,
Продолжительность: 60 мин. / 01:00
Перевод: Профессиональный многоголосый, BaibaKo

Режиссер: Джон Фоусет Т.Дж. Скотт
Продюссер: Джон Фоусет, Дэвид Фортье, Грем Мэнсон
Сценарий: Джон Фоусет, Грем Мэнсон

Мировой рейтинг IMDB 7.50 (895)


В ролях: Татьяна Маслани, Дилан Брюс, Джордан Джаварис, Кевин Ханчард, Мария Дойл Кеннеди, Майкл Мэндо, Скайлер Уэкслер, Инга Кадранел, Рон Лиа, Эвелин Брошу,

Описание: Сара — сирота, которой выпало перенести немало лишений в жизни. Лишенная родительской любви и заботы, Сара чувствует себя отрешенной от этого мира, в котором, как ей кажется, она никому не нужна. Нет ни единого человека, который бы заботился о ней. Но вот и без того нерадостная жизнь девушки однажды омрачается одним трагическим происшествием. Сара невольно становится свидетельницей того, как молодая женщина накладывает на себя руки. Самое страшное — покойная пугающе похожа на саму Сару. Сара совершает странный поступок — она заменяет собой погибшую, выдав себя за неё. Но это становится началом ряда несчастливых событий, которые лишь добавляют Саре проблем. Но на этом не заканчивается. Сара понимает, что она и погибшая не только невероятно похожи друг на друга...

Качество: WEB-DLRip
Формат: AVI
Видео кодек: XviD
Аудио кодек: MP3
Видео: 720x400 (16:9), 23.976 fps, ~1150 kbps, ~0.17 bit/pixel
Аудио#1: 48 kHz, 2 ch, ~128 kbps
Аудио#2: 48 kHz, 2 ch, ~128 kbps
Релиз от: BaibaKo


Внимание! Раздача ведётся путём добавления новых серий; при каждом добавлении создётся новый торрент. Чтобы начать докачку новой серии, пользователям необходимо сделать следующее:
(1) остановить скачивание,
(2) удалить старый торрент у себя из клиента (старые серии удалять не надо),
(3) скачать новый торрент и запустить его у себя в клиенте вместо старого, при этом указать клиенту путь в старую папку куда и должно происходить скачивание новых серий.

Ваш клиент при этом должен произвести хеширование (проверку) старой папки (если не производит сам - помогите ему сделать это), и будет докачивать только те серии которых у вас ещё нет. Старые серии при этом не удаляются, а продолжают раздаваться!

Eсли вы уже удалили старые серии, то предотвратить повторную закачку старых серий можно, отжав галочку в соответсвующих местах при запуске нового торрента. По возможности, желательно не удалять старые серии как можно дольше чтобы релизёр не столько продолжал раздавать старые серии, а смог сконцентрироваться на новых.

Общее
Полное имя : D:Тёмное дитя.s01.WEB-DLRip.BaibaKoOrphan.Black.s01e01.WEB-DLRip.Rus.Eng.BaibaKo.avi
Формат : AVI
Формат/Информация : Audio Video Interleave
Размер файла : 450 Мбайт
Продолжительность : 44 м.
Общий поток : 1406 Кбит/сек
Программа кодирования : VirtualDubMod 1.5.10.3 | www.virtualdub-fr.org || (build 2550/release)
Библиотека кодирования : VirtualDubMod build 2550/release
Видео
Идентификатор : 0
Формат : MPEG-4 Visual
Профиль формата : Advanced Simple@L5
Параметр BVOP формата : 1
Параметр QPel формата : Нет
Параметр GMC формата : Без точки перехода
Параметр матрицы формата : Default (MPEG)
Идентификатор кодека : XVID
Идентификатор кодека/Подсказка : XviD
Продолжительность : 44 м.
Битрейт : 1136 Кбит/сек
Ширина : 720 пикселей
Высота : 400 пикселей
Соотношение сторон : 16:9
Частота кадров : 23,976 кадра/сек
Цветовое пространство : YUV
Субдискретизация насыщенности : 4:2:0
Битовая глубина : 8 бит
Тип развёртки : Прогрессивная
Метод сжатия : С потерями
Бит/(Пиксели*Кадры) : 0.165
Размер потока : 364 Мбайт (81%)
Библиотека кодирования : XviD 64
Аудио #1
Идентификатор : 1
Формат : MPEG Audio
Версия формата : Version 1
Профиль формата : Layer 3
Режим : Joint stereo
Расширение режима : MS Stereo
Идентификатор кодека : 55
Идентификатор кодека/Подсказка : MP3
Продолжительность : 44 м.
Вид битрейта : Постоянный
Битрейт : 128 Кбит/сек
Каналы : 2 канала
Частота : 48,0 КГц
Метод сжатия : С потерями
Размер потока : 41,0 Мбайт (9%)
Выравнивание : Соединение по промежуткам
Продолжительность промежутка : 42 мс. (1,00 видеокадр)
Время предзагрузки промежутка : 504 мс.
Библиотека кодирования : LAME3.98r
Настройки программы : -m j -V 4 -q 0 -lowpass 17 -b 128
Аудио #2
Идентификатор : 2
Формат : MPEG Audio
Версия формата : Version 1
Профиль формата : Layer 3
Идентификатор кодека : 55
Идентификатор кодека/Подсказка : MP3
Продолжительность : 44 м.
Вид битрейта : Постоянный
Битрейт : 128 Кбит/сек
Каналы : 2 канала
Частота : 48,0 КГц
Метод сжатия : С потерями
Размер потока : 41,0 Мбайт (9%)
Выравнивание : Разделение по промежуткам
Продолжительность промежутка : 42 мс. (1,00 видеокадр)
Время предзагрузки промежутка : 500 мс.


Темное дитя скачать торрент


pb.wtf



Скачать Темное дитя через торрент http://i48.fastpic.ru/big/2013/0403/13/fb58edf0ce555390194227c2d19f2113.jpg Скачать фильм Темное дитя через торрент бесплантно в хорошем качестве Описание: Сара — сирота, которой выпало перенести немало лишений в жизни. Лишенная родительской любви и заботы, Сара чувствует себя ... 9.2 10 27
Info! Золотая раздача, скачанное не засчитывается.
Торрент: Зарегистрирован [2013-06-03 12:58] · скачан: 184 раз
Статус: √ проверено
Размер: 4.42 GB
Как cкачать? Как скачать Темное дитя через торрент | qTorrent

% Раздел Тема Автор DL S | L
Зарубежные сериалы [ 7.55 GB ] Темное дитя / Orphan Black / Сезон: 5 / Серии 1-10 из 10 [2017 WEBRip-AVC] MVO [BaibaKo] GEKADOL Скачать
1 | 0
Зарубежные сериалы [ 8.37 GB ] Темное дитя / Orphan Black / Сезон: 3 / Серии 1-10 из 10 [2015 BDRip-AVC MVO] [BaibaKo] GEKADOL Скачать
1 | 0
Зарубежные сериалы [ 5.84 GB ] Темное дитя / Orphan Black / Сезон: 2 / Серии 1-10 из 10 [ 2014 WEBDLRip-AVC ] MVO GEKADOL Скачать
1 | 0
Зарубежные сериалы [ 4.33 GB ] Темное дитя / Orphan Black / Сезон: 4 / Серии 1-5 из 10 [2016 WEB-DLRip-AVC] MVO [BaibaKo] GEKADOL Скачать
1 | 0
Зарубежные сериалы [ 14.32 GB ] Тёмное дитя / Orphan Black / Сезон: 1 / Серии: 1-10 [2013 WEB-DL 720p] MVO + Original Messa-fan Скачать
1 | 0


Последний раз редактировалось: qwerty411 (2013-06-03 12:58), всего редактировалось 5 раз(а)

28-11-2019 20:33  

Отключить всю рекламу на сайте

24-04-2013 09:39 Темное дитя Скачать торрент  

Раздача обновлена!
Добавлена 4 серия!
pb.wtf



02-05-2013 05:18 Темное дитя Скачать торрент  

Раздача обновлена!
Добавлена 5 серия!
pb.wtf



02-05-2013 20:18 Темное дитя Скачать торрент  

ЯК СЕРІАЛ : pb.wtf



07-05-2013 16:00 Темное дитя Скачать торрент  

Раздача обновлена!
Добавлена 6 серия!
pb.wtf



08-05-2013 01:20 Темное дитя Скачать торрент  

Сериал очень даже не плох. Смотреть интересно. Автору спасибо.pb.wtf



08-05-2013 07:08 Темное дитя Скачать торрент  

Да, сериал норм. Спасибоpb.wtf



16-05-2013 07:42 Темное дитя Скачать торрент  

Раздача обновлена!
Добавлена 7 серия!
pb.wtf



31-05-2013 11:35 Темное дитя Скачать торрент  

Раздача обновлена!
Добавлены 8 и 9 серии!
pb.wtf



03-06-2013 12:58 Темное дитя Скачать торрент  

Раздача обновлена!
Добавлена 10 серия!
pb.wtf



    Дорогой пользователь! Огромная просьба, поблагодарите релизера, оцените раздачу и оставьте свои комментарий, если Вы скачали Темное дитя через торрент бесплатно! Внесите свою лепту в развитие PiratBit!
    Комментировать посты могут только пользователи прошедшие не сложную регистрацию
    Показать сообщения:    

    Темное дитя через торрент
    Скачать бесплатно Темное дитя
    Темное дитя скачать торрент
    Темное дитя смотреть онлайн
    Cкачать фильм Темное дитя бесплатно
    Темное дитя скачать торрент в хорошем качестве
    Темное дитя смотреть онлайн бесплатно в хорошем качестве


    Вы не можете начинать темы
    Вы не можете отвечать на сообщения
    Вы не можете редактировать свои сообщения
    Вы не можете удалять свои сообщения
    Вы не можете голосовать в опросах
    Вы не можете прикреплять файлы к сообщениям
    Вы можете скачивать файлы