2 сезон

iTunes

MVO

1

2 сезон

iTunes

iTunes

1 сезон

RePack

30

Ultimate

ВАЖНО

ИГРА 18+

pack

RePack

MK11
pack

Легкие деньги

RePack

jed

RePack

fifa19

RePack

RDR2

RePack

NEED FOR SPEED™ PAYBACK

4 сезон

9 сезон

Бесстыжие 9 сезон

Все сериалы

все сериалы на PB.wtf

RePack

FAR CRY 5

Anonymous, добрый вечер, мы не успеваем собрать деньги на оплату серверов за декабрь и январь, помогите нам пожалуйста в это трудное время. В качестве благодарности мы отключим Вам всю рекламу на сайте (укажите свой ник в строку Ваше имя)!

×
  
Magnet ссылка

Побочный эффект / Side Effects (Стивен Содерберг / Steven Soderbergh) [2013 г., триллер, драма, криминал, DVDRip ,Дубляж ,лицензия ] pb.wtf

Побочный эффект через торрент pb.wtf

Размер: 1.54 GB | Добавлен: 7 лет 9 мес. назад | Торрент скачан:1697 раз
Скачать  

29-03-2013 18:18 Побочный эффект Скачать торрент  

Побочный эффект / Side Effects


Год выпуска: 2013
Страна: США
Жанр: триллер, драма, криминал
Продолжительность: 01:41:33
Перевод: Профессиональный (полное дублирование) [Лицензия]
Режиссер: Стивен Содерберг / Steven Soderbergh
В ролях: Джуд Лоу, Руни Мара, Кэтрин Зета-Джонс, Ченнинг Татум, Кармен Пелаес, Марин Айрлэнд, Полли Дрэйпер, Аральдо Альварес, Джеймс Мартинез, Владимир Версейл...
Описание: Жизнь главной героини Эмили пошла под откос, когда её мужа посадили в тюрьму. Вначале она пыталась спастись от депрессии своими силами, горстями глотая успокоительное. После того, как стало понятно, что это не поможет, Эмили не оставалось другого выхода кроме отправления в психиатрическую лечебницу к добрым и заботливым людям в белых халатах.
Теперь главная героиня борется со своими внутренними демонами уже не одна — справиться с угнетённым состоянием ей помогают два лучших доктора клиники, а также экспериментальные препараты, обладающие довольно странными побочными эффектами. Не получится ли так, что все внутренние страхи Эмили вместо того, чтобы исчезнуть, вырвутся наружу?

Качество:DVDRip
Исходник: DVD5 R5
Формат: AVI
Видео кодек: XviD
Аудио кодек: AC3
Видео: 720x384 (1.85:1), 25.000 fps, XviD ~ 1717 kbps avg, 0.248 bit/pixel
Аудио: 48 kHz, AC3 6 ch, 448 kbps, русский

Общее
Полное имя : Pobochnyi.effekt.2013.D.DVDRip.avi
Формат : AVI
Формат/Информация : Audio Video Interleave
Размер файла : 1,54 Гбайт
Продолжительность : 1 ч. 41 м.
Общий поток : 2175 Кбит/сек
Программа кодирования : VirtualDubMod 1.5.10.3 | www.virtualdub-fr.org || (build 2550/release)
Библиотека кодирования : VirtualDubMod build 2550/release

Видео
Идентификатор : 0
Формат : MPEG-4 Visual
Профиль формата : Advanced Simple@L5
Параметр BVOP формата : 1
Параметр QPel формата : Нет
Параметр GMC формата : Без точки перехода
Параметр матрицы формата : Выборочная
Идентификатор кодека : XVID
Идентификатор кодека/Подсказка : XviD
Продолжительность : 1 ч. 41 м.
Битрейт : 1717 Кбит/сек
Ширина : 720 пикселей
Высота : 384 пикселя
Соотношение сторон : 1,85:1
Частота кадров : 25,000 кадров/сек
Цветовое пространство : YUV
Субдискретизация насыщенности : 4:2:0
Битовая глубина : 8 бит
Тип развёртки : Прогрессивная
Метод сжатия : С потерями
Бит/(Пиксели*Кадры) : 0.248
Размер потока : 1,22 Гбайт (79%)
Библиотека кодирования : XviD 65

Аудио
Идентификатор : 1
Формат : AC-3
Формат/Информация : Audio Coding 3
Расширение режима : CM (complete main)
Параметр Endianness формата : Big
Идентификатор кодека : 2000
Продолжительность : 1 ч. 41 м.
Вид битрейта : Постоянный
Битрейт : 448 Кбит/сек
Каналы : 6 каналов
Расположение каналов : Front: L C R, Side: L R, LFE
Частота : 48,0 КГц
Битовая глубина : 16 бит
Метод сжатия : С потерями
Размер потока : 325 Мбайт (21%)
Выравнивание : Разделение по промежуткам
Продолжительность промежутка : 40 мс. (1,00 видеокадр)
Время предзагрузки промежутка : 500 мс.
pb.wtf



Скачать Побочный эффект через торрент http://s6.hostingkartinok.com/uploads/images/2013/03/f8c89f56d15906c19006f34e0dbefe64.jpg Скачать фильм Побочный эффект через торрент бесплантно в хорошем качестве Описание: Жизнь главной героини Эмили пошла под откос, когда её мужа посадили в тюрьму. Вначале она пыталась спастись от депрессии своими ... 9.7 10 30
Info! Золотая раздача, скачанное не засчитывается.
Торрент: Зарегистрирован [2013-04-17 11:10] · скачан: 1 697 раз
Статус: √ проверено
Размер: 1.54 GB
Как cкачать? Как скачать Побочный эффект через торрент | UTorrent

% Раздел Тема Автор DL S | L
Фильмы [HD 720p, 1080p] (Хороший звук DUB, MVO) [ 14.79 GB ] Побочный эффект / Side Effects [2013 BDRip 1080p by msltel] DUB msltel Скачать
1 | 0
Фильмы [HD 720p, 1080p] (Хороший звук DUB, MVO) [ 4.77 GB ] Побочный эффект / Side Effects [2013 BDRip 720p by msltel] DUB msltel Скачать
1 | 0
Фильмы 2013 [DVDrip, WEB-DLRip, HDrip] [ 1.46 GB ] Побочный эффект / Side Effects [2013 DVDRip лицензия] кэп Скачать
2 | 0
Фильмы [HD 720p, 1080p] (Хороший звук DUB, MVO) [ 4.69 GB ] Побочный эффект / Side Effects [2013 BDRip 720p] diletant Скачать
1 | 0
Фильмы (DVD фильмы) [ 4.05 GB ] Побочный эффект / Side Effects [2013 DVD5] R5 voovaz Скачать
1 | 0

28-11-2019 20:33  

Отключить всю рекламу на сайте

    Дорогой пользователь! Огромная просьба, поблагодарите релизера, оцените раздачу и оставьте свои комментарий, если Вы скачали Побочный эффект через торрент бесплатно! Внесите свою лепту в развитие PiratBit!
    Комментировать посты могут только пользователи прошедшие не сложную регистрацию
    Показать сообщения:    

    Побочный эффект через торрент
    Скачать бесплатно Побочный эффект
    Побочный эффект скачать торрент
    Побочный эффект смотреть онлайн
    Cкачать фильм Побочный эффект бесплатно
    Побочный эффект скачать торрент в хорошем качестве
    Побочный эффект смотреть онлайн бесплатно в хорошем качестве


    Вы не можете начинать темы
    Вы не можете отвечать на сообщения
    Вы не можете редактировать свои сообщения
    Вы не можете удалять свои сообщения
    Вы не можете голосовать в опросах
    Вы не можете прикреплять файлы к сообщениям
    Вы можете скачивать файлы