1 сезон

1 сезон

iTunes

1

КиноПоиск HD

Кинопоиск HD

iTunes

13

1 сезон

RePack

30

Новинка

ВАЖНО

ИГРА 18+

pack

RePack

MK11
pack

Легкие деньги

RePack

jed

RePack

fifa19

RePack

RDR2

RePack

NEED FOR SPEED™ PAYBACK

4 сезон

9 сезон

Бесстыжие 9 сезон

Все сериалы

все сериалы на PB.wtf

RePack

FAR CRY 5
  
Magnet ссылка

Пещера / The Cave (Брюс Хант / Bruce Hunt) [2005, США, Германия , ужасы, боевик, триллер, приключения, HDRip] AVO (С. Визгунов) + MVO pb.wtf

Пещера через торрент pb.wtf

Размер: 1.45 GB | Добавлен: 7 лет 11 мес. назад | Торрент скачан:376 раз
Скачать  

19-04-2013 15:09 Пещера Скачать торрент  

Пещера / The Cave


  • Год выпуска: 2005
  • Страна: США, Германия
  • Жанр: ужасы, боевик, триллер, приключения
  • Продолжительность: 01:37:09
  • Перевод: Авторский (одноголосый закадровый) С. Визгунов+ Профессиональный (многоголосый закадровый)
  • Субтитры: нет
  • Режиссер: Брюс Хант / Bruce Hunt
  • В ролях: Коул Хаузер (Jack McAllister), Эдди Сибриан (Tyler McAllister), Моррис Честнат (Top Buchanan), Лина Хиди (Dr. Kathryn Jennings), Пайпер Перабо (Charlie), Рик Раванелло (Briggs), Дэниэл Дэ Ким (Alex Kim), Киран Дарси-Смит (Strode), Марчел Юреш (Dr. Nicolai), Влад Радеску (Dr. Bacovia), Саймон Кунц (Mike - Caver #1), Дэвид Кеннеди (Ian - Caver #2)
  • Описание:
    В лесных дебрях Румынии группа ученых наталкивается на руины аббатства XIII века. Обследовав их, они совершают удивительное открытие - это сооружение было построено над входом в гигантский подземный грот. А по мнению местных биологов, в гроте существует уникальная и еще не познанная экосистема.
    В итоге они отправляются выведывать ее тайны вместе с американскими спелеологами - Джеком, его братом Тайлером и группой лучших в мире ныряльщиков. В их распоряжении - самое современное оборудование, с помощью которого можно в течение 24 часов оставаться под водой. Оказавшись в гроте, исследователи, к своему ужасу, находят не новую экосистему, а невиданных доселе существ...
  • Рейтинг
    kinopoisk.ru: 6.005 (2942)
    imdb.com: 4.90 (20 538)
    MPAA: PG-13 - Детям до 13 лет просмотр не желателен

  • Качество видео: HDRip [Исходник BDRip 720p]
  • Формат видео: AVI
  • Видео кодек: XviD
  • Аудио кодек: AC3
  • Видео: XviD; 720x304 (2.35:1); 1741 Kbps; 23,976 fps; 0,332 bpp
  • Аудио №1: AC3; 192 Kbps; CBR; 2 ch; 16 bit 48 kHz [ С. Визгунов]
    Аудио №2: AC3; 192 Kbps; CBR; 2 ch; 16 bit,48 kHz [MVO]

  • Сценарий: Майкл Стейнберг / Michael Steinberg, Теган Уэст / Tegan West
    Продюсер: Ричард С. Райт / Richard S. Wright, Гари Лучези / Gary Lucchesi, Эндрю Мэйсон / Andrew Mason, Майкл Оуховен / Michael Ohoven, Том Розенберг / Tom Rosenberg
    Оператор: Росс Эмери / Ross Emery
    Композитор: Райнхольд Хайль / Reinhold Heil, Джонни Клаймек / Johnny Klimek
    Бюджет: $30 000 000
    Сборы в США: $15 007 991
    Сборы в мире: $33 296 457

    Мировая премьера: 26 августа 2005

    General
    Complete name : D:ТорентыThe.Cave.2005.HDRip.AVO(Vizgunov)+MVO(СТС) by_feld.avi
    Format : AVI
    Format/Info : Audio Video Interleave
    File size : 1.45 GiB
    Duration : 1h 37mn
    Overall bit rate : 2 140 Kbps
    Writing application : VirtualDubModRus 1.5.10.2 (build 2542/release)
    Writing library : VirtualDubMod build 2542/release

    Video
    ID : 0
    Format : MPEG-4 Visual
    Format profile : Advanced Simple@L5
    Format settings, BVOP : 2
    Format settings, QPel : No
    Format settings, GMC : No warppoints
    Format settings, Matrix : Default (MPEG)
    Codec ID : XVID
    Codec ID/Hint : XviD
    Duration : 1h 37mn
    Bit rate : 1 742 Kbps
    Width : 720 pixels
    Height : 304 pixels
    Display aspect ratio : 2.35:1
    Frame rate : 23.976 fps
    Color space : YUV
    Chroma subsampling : 4:2:0
    Bit depth : 8 bits
    Scan type : Progressive
    Compression mode : Lossy
    Bits/(Pixel*Frame) : 0.332
    Stream size : 1.18 GiB (81%)
    Writing library : XviD 64

    Audio #1
    ID : 1
    Format : AC-3
    Format/Info : Audio Coding 3
    Mode extension : CM (complete main)
    Codec ID : 2000
    Duration : 1h 37mn
    Bit rate mode : Constant
    Bit rate : 192 Kbps
    Channel(s) : 2 channels
    Channel positions : Front: L R
    Sampling rate : 48.0 KHz
    Bit depth : 16 bits
    Compression mode : Lossy
    Stream size : 133 MiB (9%)
    Alignment : Split accross interleaves
    Interleave, duration : 42 ms (1.00 video frame)
    Interleave, preload duration : 500 ms

    Audio #2
    ID : 2
    Format : AC-3
    Format/Info : Audio Coding 3
    Mode extension : CM (complete main)
    Codec ID : 2000
    Duration : 1h 37mn
    Bit rate mode : Constant
    Bit rate : 192 Kbps
    Channel(s) : 2 channels
    Channel positions : Front: L R
    Sampling rate : 48.0 KHz
    Bit depth : 16 bits
    Compression mode : Lossy
    Stream size : 133 MiB (9%)
    Alignment : Split accross interleaves
    Interleave, duration : 42 ms (1.00 video frame)
    Interleave, preload duration : 500 ms

    © Оформление by Vetalpb.wtf



  • Скачать Пещера через торрент http://i46.fastpic.ru/big/2013/0419/20/a9ab2ca9e8a6a6c32e3e97288dd0f620.jpg Скачать фильм Пещера через торрент бесплантно в хорошем качестве Описание: В лесных дебрях Румынии группа ученых наталкивается на руины аббатства XIII века. Обследовав их, они совершают удивительное ... 10 10 10
    Info! Золотая раздача, скачанное не засчитывается.
    Торрент: Зарегистрирован [2013-04-19 15:09] · скачан: 376 раз
    Статус: √ проверено
    Размер: 1.45 GB
    Как cкачать? Как скачать Пещера через торрент | UTorrent

    % Раздел Тема Автор DL S | L
    Фильмы 2001-2005 [ 2.69 GB ] Пещера / The Cave [2005 BDRip-AVC] 2х MVO DVO AVO -Lexx- Скачать
    1 | 0
    Фильмы [HD 720p, 1080p] (Хороший звук DUB, MVO) [ 7.31 GB ] Пещера / The Cave [2005 BDRip 720p MVO лицензия] Ke$h@ Скачать
    1 | 0

    28-11-2019 20:33  

    Отключить всю рекламу на сайте

      Дорогой пользователь! Огромная просьба, поблагодарите релизера, оцените раздачу и оставьте свои комментарий, если Вы скачали Пещера через торрент бесплатно! Внесите свою лепту в развитие PiratBit!
      Комментировать посты могут только пользователи прошедшие не сложную регистрацию
      Показать сообщения:    

      Пещера через торрент
      Скачать бесплатно Пещера
      Пещера скачать торрент
      Пещера смотреть онлайн
      Cкачать фильм Пещера бесплатно
      Пещера скачать торрент в хорошем качестве
      Пещера смотреть онлайн бесплатно в хорошем качестве


      Вы не можете начинать темы
      Вы не можете отвечать на сообщения
      Вы не можете редактировать свои сообщения
      Вы не можете удалять свои сообщения
      Вы не можете голосовать в опросах
      Вы не можете прикреплять файлы к сообщениям
      Вы можете скачивать файлы