Ссылка на приватное зеркало всего за 1$. Внимание количество ограничено!!!

iTunes

1+1

iTunes

мы

WEB-DL

1

iTunes

Чернобыль

iTunes

Ральф против интернета

Лицензия

ПШазам

Лицензия

Оно 2

Лицензия

30
pack

Вам бонус

ВАЖНО

!!Акция!!

Alien_RageХит недели

RePack

Resident Evil 21

ИГРА 18+

pack

RePack

jed

!!Акция!!

Alien_Rage

RePack

fifa19

RePack

Assassins Creed: Odyssey

RePack

NEED FOR SPEED™ PAYBACK

3 сезон

9 сезон

Бесстыжие 9 сезон

Все сериалы

все сериалы на PB.wtf

RePack

FAR CRY 5
Ребята, катастрофически не хватает 1900р. для оплаты серверов за Октябрь (всвязи с блокировками трафик упал в 3 раза), 1-2р., выручайте.
  

Микроб / Germ (Джон Крэддок) [2013 г., ужасы, фантастика, боевик, драма, DVDRip, DVO] [den904, DeadSno]+Оригинал pb.wtf

Микроб через торрент pb.wtf

Размер: 1.46 GB | Добавлен: 6 лет 7 мес. назад | Торрент скачан:994 раза
Скачать  

19-04-2013 15:52 Микроб Скачать торрент  

Микроб / Germ


  • Год выпуска: 2013
  • Страна: США
  • Жанр: ужасы, фантастика, боевик, драма
  • Продолжительность: 01:24:43
  • Перевод: Любительский (двухголосый)[den904 , DeadSno ] по субтитрам Chup
  • Субтитры: нет
  • Режиссер: Джон Крэддок / John Craddock
  • В ролях: Маргарит Митчелл (Brooke), Майкл Флорес (Max), Mark Chiappone (Stu), Бет Прэтт (Karen), Зои Миллер (Steph), Bernard Setaro Clark (Davidson), Jody Pucello (Cooper), Алисса Кон (Krissy), Ванесса Смит (Kim), Бренден Нэйджел (Chad), Майкл Эсси (Dykes), Линетт Диксон (Mrs. Brewer)
  • Описание:
    Попытки военных сбить орбитальный спутник порождают эпидемию в удаленном, маленьком городке. Помощник шерифа Макс Брод, и его подруга Брук, должны пробираться через армию зараженных горожан и солдат, они должны спасти себя и своих близких от ужасной ранней смерти.
  • Рейтинг
    imdb.com: 4.30 (50)

  • Качество видео: DVDRip
  • Формат видео: AVI
  • Видео кодек: XviD
  • Аудио кодек: MP3 ;AC3
  • Видео: XviD; 720x400 (16:9); 1710 Kbps; 29,970 fps; 0,198 bpp
  • Аудио №1: MP3 ; 192 Kbps; CBR; 2 cht,48 kHz
    Аудио №2: AC3; 448 Kbps; CBR; 6 ch; 16 bi [ английский]

  • Сценарий: Дж.Т. Бун / J.T. Boone
    Продюсер: Дж.Т. Бун / J.T. Boone, Джон Крэддок / John Craddock, Шеп Бун / Shep Boone, Линетт Диксон / Lynette Dixon
    Оператор: Гас Сакс / Gus Sacks
    Композитор: Сиддхарта Барнхурн / Siddhartha Barnhoorn, Хит Хэнлин / Heath Hanlin
    Бюджет: $500 000

    Мировая премьера: 1 декабря 2011

    General
    Complete name : D:ТорентыMikrob.2013.avi
    Format : AVI
    Format/Info : Audio Video Interleave
    File size : 1.46 GiB
    Duration : 1h 24mn
    Overall bit rate : 2 459 Kbps
    Writing application : VirtualDubMod 1.5.10.2 (build 2540/release)
    Writing library : VirtualDubMod build 2540/release

    Video
    ID : 0
    Format : MPEG-4 Visual
    Format profile : Simple@L3
    Format settings, BVOP : No
    Format settings, QPel : No
    Format settings, GMC : No warppoints
    Format settings, Matrix : Default (H.263)
    Codec ID : XVID
    Codec ID/Hint : XviD
    Duration : 1h 24mn
    Bit rate : 1 711 Kbps
    Width : 720 pixels
    Height : 400 pixels
    Display aspect ratio : 16:9
    Frame rate : 29.970 fps
    Color space : YUV
    Chroma subsampling : 4:2:0
    Bit depth : 8 bits
    Scan type : Progressive
    Compression mode : Lossy
    Bits/(Pixel*Frame) : 0.198
    Stream size : 1.01 GiB (70%)
    Writing library : XviD 64

    Audio #1
    ID : 1
    Format : MPEG Audio
    Format version : Version 1
    Format profile : Layer 3
    Mode : Joint stereo
    Codec ID : 55
    Codec ID/Hint : MP3
    Duration : 1h 24mn
    Bit rate mode : Constant
    Bit rate : 192 Kbps
    Channel(s) : 2 channels
    Sampling rate : 48.0 KHz
    Compression mode : Lossy
    Stream size : 116 MiB (8%)
    Alignment : Aligned on interleaves

    Audio #2
    ID : 2
    Format : AC-3
    Format/Info : Audio Coding 3
    Mode extension : CM (complete main)
    Codec ID : 2000
    Duration : 1h 24mn
    Bit rate mode : Constant
    Bit rate : 448 Kbps
    Channel(s) : 6 channels
    Channel positions : Front: L C R, Side: L R, LFE
    Sampling rate : 48.0 KHz
    Bit depth : 16 bits
    Compression mode : Lossy
    Stream size : 271 MiB (18%)
    Alignment : Split accross interleaves

    © Оформление by Vetalpb.wtf



  • Скачать Микроб через торрент http://i47.fastpic.ru/big/2013/0419/cc/8ad32b1ce90b286eb004ab83531876cc.png Скачать фильм Микроб через торрент бесплантно в хорошем качестве Описание: Попытки военных сбить орбитальный спутник порождают эпидемию в удаленном, маленьком городке. Помощник шерифа Макс Брод, и его ... 9.1 10 23
    Info! Золотая раздача, скачанное не засчитывается.
    Торрент: Зарегистрирован [2013-04-19 15:52] · скачан: 994 раз
    Статус: √ проверено
    Размер: 1.46 GB
    Как cкачать? Как скачать Микроб через торрент | qTorrent

    28-11-2019 20:33  

    Отключить всю рекламу на сайте

    19-04-2013 15:57 Микроб Скачать торрент  

    Это наверно как фильм безумцы. :shoot2:pb.wtf



    21-04-2013 17:13 Микроб Скачать торрент  

    Спутник,разумеется,российский pb.wtf



    27-04-2013 20:22 Микроб Скачать торрент  

    хрень редкостная. любителям тупого америкосного кино- смотреть...pb.wtf



    04-05-2013 07:05 Микроб Скачать торрент  

    polih писал(а):

    хрень редкостная. любителям тупого америкосного кино- смотреть...

    ну так бюджет всего $500 000 roflpb.wtf



    04-05-2013 07:43 Микроб Скачать торрент  

    sossisska писал(а):

    polih писал(а):

    хрень редкостная. любителям тупого америкосного кино- смотреть...

    ну так бюджет всего $500 000 rofl

    три последних нолика явно лишниеpb.wtf



      Дорогой пользователь! Огромная просьба, поблагодарите релизера, оцените раздачу и оставьте свои комментарий, если Вы скачали Микроб через торрент бесплатно! Внесите свою лепту в развитие PiratBit!
      Комментировать посты могут только пользователи прошедшие не сложную регистрацию
      Показать сообщения:    

      Микроб через торрент
      Скачать бесплатно Микроб
      Микроб скачать торрент
      Микроб смотреть онлайн
      Cкачать фильм Микроб бесплатно
      Микроб скачать торрент в хорошем качестве
      Микроб смотреть онлайн бесплатно в хорошем качестве


      Вы не можете начинать темы
      Вы не можете отвечать на сообщения
      Вы не можете редактировать свои сообщения
      Вы не можете удалять свои сообщения
      Вы не можете голосовать в опросах
      Вы не можете прикреплять файлы к сообщениям
      Вы можете скачивать файлы