Ссылка на приватное зеркало нашего сайта всего за 1$. Внимание количество ограничено!!!

2 сезон

iTunes

1 сезон

1

iTunes

iTunes

iTunes

1 сезон

RePack

30

ИГРА 18+

pack

ВАЖНО

!!Акция!!

Alien_RageХит недели

RePack

MK11
pack

Забери бонус

RePack

jed

!!Акция!!

Alien_Rage

RePack

fifa19

RePack

Assassins Creed: Odyssey

RePack

NEED FOR SPEED™ PAYBACK

4 сезон

9 сезон

Бесстыжие 9 сезон

Все сериалы

все сериалы на PB.wtf

RePack

FAR CRY 5
  

Я буду рядом (Павел Руминов)[ 2012, Россия, Украина, драма, DVDRip] [ лицензия ] pb.wtf

Я буду рядом через торрент pb.wtf

Размер: 1.46 GB | Добавлен: 7 лет 6 мес. назад | Торрент скачан:498 раз
Скачать  

19-04-2013 18:12 Я буду рядом Скачать торрент  

Я буду рядом


  • Год выпуска: 2012
  • Страна: Россия, Украина
  • Жанр: драма
  • Продолжительность: 01:35:02
  • Перевод: Не требуется
  • Субтитры: нет
  • Режиссер: Павел Руминов
  • В ролях: Мария Шалаева (Инна), Роман Зенчук (Митя, сын Инны), Мария Сёмкина (Ольга, приемная мать), Иван Волков (Сергей, приемный отец), Елена Морозова (Юля, подруга Инны), Алиса Хазанова, Иван Кокорин, Михаил Крылов, Анастасия Захарова, Тихон Корнев, Мария Тверитнева (официантка), Валерий Караваев (шеф-повар Толя)
  • Описание:
    Инна - успешная молодая женщина с отличным чувством юмора. Она работает менеджером ресторана, по праву заслужив уважение и любовь коллег и начальства. А еще у нее есть самый важный человек на свете - 6-летний сын Митя, которого Инна воспитывает одна. На зависть окружающим, между матерью и ребенком сложились трогательные, добрые, заботливые отношения. Но неожиданно Инну настигает страшная беда - неизлечимая болезнь. Теперь главное для Инны - найти маленькому Мите новых родителей, иначе ребенок останется одиноким сиротой.
  • Рейтинг
    kinopoisk.ru: 7.366 (170)
    imdb.com: 5.80 (17)

  • Качество видео: DVDRip
  • Формат видео: AVI
  • Видео кодек: XviD
  • Аудио кодек: AC3
  • Видео: XviD; 720x400 (16:9); 1736 Kbps; 25 fps;
  • Аудио: AC3; 448 Kbps; CBR; 6 ch; 16 bit,48 kHz
    Сценарий: Павел Руминов, Тихон Корнев
    Продюсер: Алексей Учитель, Кира Саксаганская, Георгий Малков, Владимир Зеленский, Сергей Шефир
    Оператор: Федор Лясс
    Композитор: Александр Иванов
    Сборы в России: $38 000

    Мировая премьера: 16 октября 2012
    Релиз на DVD: 18 апреля 2013, «Мистерия Звука»
    Релиз на Blu-ray: Май 2013, «Мистерия Звука»

    General
    Complete name : D:ТорентыJa.budu.rjadom.2012.O.DVDRip.avi
    Format : AVI
    Format/Info : Audio Video Interleave
    File size : 1.46 GiB
    Duration : 1h 35mn
    Overall bit rate : 2 194 Kbps
    Movie name : Ja.budu.rjadom.2012.O.DVDRip.I
    Director :
    Genre : Drama
    Writing application : VirtualDubMod 1.5.10.3 | www.virtualdub-fr.org || (build 2550/release)
    Original source form/Name : Movie
    :

    Video
    ID : 0
    Format : MPEG-4 Visual
    Format profile : Advanced Simple@L5
    Format settings, BVOP : 1
    Format settings, QPel : No
    Format settings, GMC : No warppoints
    Format settings, Matrix : Custom
    Codec ID : XVID
    Codec ID/Hint : XviD
    Duration : 1h 35mn
    Bit rate : 1736 Kbps
    Width : 720 pixels
    Height : 400 pixels
    Display aspect ratio : 16:9
    Frame rate : 25.000 fps
    Color space : YUV
    Chroma subsampling : 4:2:0
    Bit depth : 8 bits
    Scan type : Progressive
    Compression mode : Lossy
    Bits/(Pixel*Frame) : 0.229
    Stream size : 1.10 GiB (75%)
    Writing library : XviD 1.2.1 (UTC 2008-12-04)

    Audio
    ID : 1
    Format : AC-3
    Format/Info : Audio Coding 3
    Mode extension : CM (complete main)
    Codec ID : 2000
    Duration : 1h 35mn
    Bit rate mode : Constant
    Bit rate : 448 Kbps
    Channel(s) : 6 channels
    Channel positions : Front: L C R, Side: L R, LFE
    Sampling rate : 48.0 KHz
    Bit depth : 16 bits
    Compression mode : Lossy
    Stream size : 305 MiB (20%)
    Alignment : Split accross interleaves

    © Оформление by Vetalpb.wtf



  • Скачать Я буду рядом через торрент http://i46.fastpic.ru/big/2013/0419/45/62f8455b2e1270e9591041600dbc0545.jpg Скачать фильм Я буду рядом через торрент бесплантно в хорошем качестве Описание: Инна - успешная молодая женщина с отличным чувством юмора. Она работает менеджером ресторана, по праву заслужив уважение и любовь ... 9.2 10 12
    Info! Золотая раздача, скачанное не засчитывается.
    Торрент: Зарегистрирован [2013-04-19 18:12] · скачан: 498 раз
    Статус: √ проверено
    Размер: 1.46 GB
    Как cкачать? Как скачать Я буду рядом через торрент | qTorrent

    % Раздел Тема Автор DL S | L
    Отечественная Поп музыка (сборники) (mp3) [ 675 MB ] VA - Я буду рядом 2016 / MP3 / 256 kbps / Поп Шансон bober100 Скачать
    1 | 0
    Наши сериалы [ 1.37 GB ] Я буду рядом [2014 Мело SATRip] Ворон Скачать
    1 | 0

    28-11-2019 20:33  

    Отключить всю рекламу на сайте

      Дорогой пользователь! Огромная просьба, поблагодарите релизера, оцените раздачу и оставьте свои комментарий, если Вы скачали Я буду рядом через торрент бесплатно! Внесите свою лепту в развитие PiratBit!
      Комментировать посты могут только пользователи прошедшие не сложную регистрацию
      Показать сообщения:    

      Я буду рядом через торрент
      Скачать бесплатно Я буду рядом
      Я буду рядом скачать торрент
      Я буду рядом смотреть онлайн
      Cкачать фильм Я буду рядом бесплатно
      Я буду рядом скачать торрент в хорошем качестве
      Я буду рядом смотреть онлайн бесплатно в хорошем качестве


      Вы не можете начинать темы
      Вы не можете отвечать на сообщения
      Вы не можете редактировать свои сообщения
      Вы не можете удалять свои сообщения
      Вы не можете голосовать в опросах
      Вы не можете прикреплять файлы к сообщениям
      Вы можете скачивать файлы