2 сезон

iTunes

MVO

1

2 сезон

iTunes

iTunes

1 сезон

RePack

30

Новинка

ВАЖНО

ИГРА 18+

pack

RePack

MK11
pack

Легкие деньги

RePack

jed

RePack

fifa19

RePack

RDR2

RePack

NEED FOR SPEED™ PAYBACK

4 сезон

9 сезон

Бесстыжие 9 сезон

Все сериалы

все сериалы на PB.wtf

RePack

FAR CRY 5

Anonymous, добрый вечер, мы не успеваем собрать деньги на оплату серверов за декабрь и январь, помогите нам пожалуйста в это трудное время. В качестве благодарности мы отключим Вам всю рекламу на сайте (укажите свой ник в строку Ваше имя)!

×
  
Magnet ссылка

Парк Юрского периода в 3D / Jurassic Park in 3D (Стивен Спилберг) [1993 г., приключения, фантастика, семейный, BDRip 1080p, MVO + Оригинал] Анаглиф (Дюбуа) pb.wtf

Парк Юрского периода в 3D через торрент pb.wtf

Размер: 8.22 GB | Добавлен: 7 лет 9 мес. назад | Торрент скачан:358 раз
Скачать  

20-04-2013 13:06 Парк Юрского периода в 3D Скачать торрент  

Парк Юрского периода в 3D / Jurassic Park in 3D
Год выпуска: 1993
Страна: США
Жанр: приключения, фантастика, семейный,
Продолжительность: 02:06:49
Перевод: Профессиональный (многоголосый, закадровый)

Режиссер: Стивен Спилберг
Продюссер: Кэтлин Кеннеди, Джералд Р. Молен, Лата Райан
Сценарий: Майкл Крайтон, Дэвид Кепп

Бюджет: $63 000 000
Премьера в мире: 9 июня 1993

Мировой рейтинг IMDB 8.00 (298 688)



В ролях: Сэм Нил, Лора Дерн, Джефф Голдблюм, Ричард Аттенборо, Джозеф Маццелло, Ариана Ричардс, Уэйн Найт, Боб Пек, Мартин Ферреро, Сэмюэл Л. Джексон,

Описание: Экспансивный богач и профессор уговаривает пару ученых-палеонтологов приехать на остров у побережья Коста-Рики, где он устроил реликтовый парк. В парке этом водятся древние зверушки — динозавры, которые по его идее и должны стать гвоздем программы нового аттракциона.До открытия остается несколько дней, а один из работников, пытаясь продать «рассаду» налево, нарушает систему охраны, что в комплексе с грозовым ливнем приводит к тому, что доисторические животные оказываются на воле, где действуют в соответствии со своими инстинктами.

Доп. информация: Формат 3D: Анаглиф (Дюбуа)



Качество: BDRip 1080p
Формат: MKV
Видео кодек: x264
Аудио кодек: AC3
Видео: 1920 х 1036 / 23,976 fps, (1,85:1) / 8003 Kbps, (0.168 bit/pixel)
Аудио#1: Rus, AC-3, 6 каналов, 448 Кбит/сек, 48,0 КГц - Профессиональный (многоголосый, закадровый) Пифагор
Аудио#2: Ukr, AC-3, 6 каналов, 448 Кбит/сек, 48,0 КГц - Профессиональный (многоголосый, закадровый) 1+1
Аудио#3: Eng, AC-3, 6 каналов, 448 Кбит/сек, 48,0 КГц




Общее
Уникальный идентификатор : 175460126409502150641203975305137291215 (0x8400642264BBA8465BFB1AB806CCFFCF)
Полное имя : D:DVDJurassic.Park.1080p(Anaglyph_Dubois).mkv
Формат : Matroska
Версия формата : Version 2
Размер файла : 8,22 Гбайт
Продолжительность : 2 ч. 6 м.
Общий поток : 9276 Кбит/сек
Программа кодирования : HandBrake 0.9.8
Библиотека кодирования : libmkv 0.6.5

Видео
Идентификатор : 1
Формат : AVC
Формат/Информация : Advanced Video Codec
Профиль формата : High@L4.0
Параметр CABAC формата : Да
Параметр ReFrames формата : 4 кадра
Идентификатор кодека : V_MPEG4/ISO/AVC
Продолжительность : 2 ч. 6 м.
Битрейт : 8003 Кбит/сек
Ширина : 1920 пикселей
Высота : 1036 пикселей
Соотношение сторон : 1,85:1
Режим частоты кадров : Постоянный
Частота кадров : 23,976 кадра/сек
Цветовое пространство : YUV
Субдискретизация насыщенности : 4:2:0
Битовая глубина : 8 бит
Тип развёртки : Прогрессивная
Бит/(Пиксели*Кадры) : 0.168
Размер потока : 6,86 Гбайт (84%)
Библиотека кодирования : x264 core 120
Настройки программы : cabac=1 / ref=3 / deblock=1:-1:-1 / analyse=0x3:0x113 / me=hex / subme=2 / psy=1 / psy_rd=1.00:0.15 / mixed_ref=1 / me_range=16 / chroma_me=1 / trellis=0 / 8x8dct=1 / cqm=0 / deadzone=21,11 / fast_pskip=1 / chroma_qp_offset=0 / threads=1 / sliced_threads=0 / nr=0 / decimate=1 / interlaced=0 / bluray_compat=0 / constrained_intra=0 / bframes=3 / b_pyramid=2 / b_adapt=1 / b_bias=0 / direct=1 / weightb=1 / open_gop=0 / weightp=2 / keyint=240 / keyint_min=24 / scenecut=40 / intra_refresh=0 / rc_lookahead=40 / rc=abr / mbtree=1 / bitrate=8003 / ratetol=1.0 / qcomp=0.60 / qpmin=3 / qpmax=69 / qpstep=4 / ip_ratio=1.40 / aq=1:1.00
Язык : English
Default : Да
Forced : Нет
Основные цвета : BT.709
Характеристики трансфера : BT.709
Коэффициенты матрицы : BT.709

Аудио #1
Идентификатор : 2
Формат : AC-3
Формат/Информация : Audio Coding 3
Расширение режима : CM (complete main)
Параметр Endianness формата : Big
Идентификатор кодека : A_AC3
Продолжительность : 2 ч. 6 м.
Вид битрейта : Постоянный
Битрейт : 448 Кбит/сек
Каналы : 6 каналов
Расположение каналов : Front: L C R, Side: L R, LFE
Частота : 48,0 КГц
Битовая глубина : 16 бит
Метод сжатия : С потерями
Размер потока : 406 Мбайт (5%)
Язык : Russian
Default : Да
Forced : Нет

Аудио #2
Идентификатор : 3
Формат : AC-3
Формат/Информация : Audio Coding 3
Расширение режима : CM (complete main)
Параметр Endianness формата : Big
Идентификатор кодека : A_AC3
Продолжительность : 2 ч. 6 м.
Вид битрейта : Постоянный
Битрейт : 448 Кбит/сек
Каналы : 6 каналов
Расположение каналов : Front: L C R, Side: L R, LFE
Частота : 48,0 КГц
Битовая глубина : 16 бит
Метод сжатия : С потерями
Размер потока : 406 Мбайт (5%)
Язык : Ukrainian
Default : Нет
Forced : Нет

Аудио #3
Идентификатор : 4
Формат : AC-3
Формат/Информация : Audio Coding 3
Расширение режима : CM (complete main)
Параметр Endianness формата : Big
Идентификатор кодека : A_AC3
Продолжительность : 2 ч. 6 м.
Вид битрейта : Постоянный
Битрейт : 448 Кбит/сек
Каналы : 6 каналов
Расположение каналов : Front: L C R, Side: L R, LFE
Частота : 48,0 КГц
Битовая глубина : 16 бит
Метод сжатия : С потерями
Размер потока : 406 Мбайт (5%)
Язык : English
Default : Нет
Forced : Нет


Парк Юрского периода скачать торрент


pb.wtf



Скачать Парк Юрского периода в 3D через торрент http://i46.fastpic.ru/big/2013/0420/68/69b28aaab8664903126552b00bc15668.gif Скачать фильм Парк Юрского периода в 3D через торрент бесплантно в хорошем качестве Описание: Экспансивный богач и профессор уговаривает пару ученых-палеонтологов приехать на остров у побережья Коста-Рики, где он устроил ... 10 10 20
Info! Золотая раздача, скачанное не засчитывается.
Торрент: Зарегистрирован [2013-04-20 13:06] · скачан: 358 раз
Статус: √ проверено
Размер: 8.22 GB
Как cкачать? Как скачать Парк Юрского периода в 3D через торрент | UTorrent

28-11-2019 20:33  

Отключить всю рекламу на сайте

24-06-2013 13:40 Парк Юрского периода в 3D Скачать торрент  

ФИЛЬМ НЕ В 3D!!!!!!pb.wtf



24-06-2013 17:58 Парк Юрского периода в 3D Скачать торрент  

Евгений83 писал(а):

ФИЛЬМ НЕ В 3D!!!!!!

Спасибо что просветили! Я махаюсь что-то кодирую , а оказывается что - это НЕ 3D. Теперь уж точно буду знать.pb.wtf



19-08-2013 17:47 Парк Юрского периода в 3D Скачать торрент  

slaventi-69 писал(а):

slaventi-69

только за ответ 5+ ))))))))))))))))) а фильмец для раритета норм ), погляжу как в 3Деpb.wtf



    Дорогой пользователь! Огромная просьба, поблагодарите релизера, оцените раздачу и оставьте свои комментарий, если Вы скачали Парк Юрского периода в 3D через торрент бесплатно! Внесите свою лепту в развитие PiratBit!
    Комментировать посты могут только пользователи прошедшие не сложную регистрацию
    Показать сообщения:    

    Парк Юрского периода в 3D через торрент
    Скачать бесплатно Парк Юрского периода в 3D
    Парк Юрского периода в 3D скачать торрент
    Парк Юрского периода в 3D смотреть онлайн
    Cкачать фильм Парк Юрского периода в 3D бесплатно
    Парк Юрского периода в 3D скачать торрент в хорошем качестве
    Парк Юрского периода в 3D смотреть онлайн бесплатно в хорошем качестве


    Вы не можете начинать темы
    Вы не можете отвечать на сообщения
    Вы не можете редактировать свои сообщения
    Вы не можете удалять свои сообщения
    Вы не можете голосовать в опросах
    Вы не можете прикреплять файлы к сообщениям
    Вы можете скачивать файлы