2 сезон

iTunes

1 сезон

1

iTunes

iTunes

iTunes

1 сезон

RePack

30

ИГРА 18+

pack

ВАЖНО

!!Акция!!

Alien_RageХит недели

RePack

MK11
pack

Забери бонус

RePack

jed

!!Акция!!

Alien_Rage

RePack

fifa19

RePack

Assassins Creed: Odyssey

RePack

NEED FOR SPEED™ PAYBACK

4 сезон

9 сезон

Бесстыжие 9 сезон

Все сериалы

все сериалы на PB.wtf

RePack

FAR CRY 5
  

Неуловимые / Red Dawn (Дэн Брэдли) [2012 г., боевик, BDRip 720p, Дубляж, лицензия] pb.wtf

Неуловимые через торрент pb.wtf

Размер: 5.97 GB | Добавлен: 7 лет 6 мес. назад | Торрент скачан:364 раза
Скачать  

21-04-2013 12:24 Неуловимые Скачать торрент  

Неуловимые / Red Dawn

«Не отступать и не сдаваться»
Год выпуска: 2012
Страна: США
Жанр: боевик,
Продолжительность: 01:33:00
Перевод: Дубляж, Лицензия
Тип релиза: Лицензия
Субтитры: Есть

Режиссер: Дэн Брэдли
Продюссер: Бо Флинн, Трип Винсон, Кевин Халлоран
Сценарий: Кевин Рейнольдс, Карл Эллсуорт, Джереми Пассмор

Бюджет: $65 000 000
Премьера в мире: 27 сентября 2012


Мировой рейтинг IMDB 5.20 (25 927)


В ролях: Крис Хемсворт, Джош Пек, Джош Хатчерсон, Эдрианн Палики, Изабель Лукас, Джеффри Дин Морган, Коннор Круз, Эдвин Ходж, Бретт Каллен, Алисса Диаз, Иван Жарков, Владимир Антоник, Александр Дасевич, Пётр Иващенко,

Описание: Недалекое будущее. Новый тип оружия сделал даже крупнейшие сверхдержавы беспомощными перед массированным вторжением войск противника. Теперь война пришла в каждый дом. Восемь обычных американских парней и девушек решают не сдаваться без боя. Они организовывают отряд сопротивления «Росомахи». Их миссия — создавать хаос. От их смекалки и силы духа будет зависеть, есть ли у мира шанс пережить красный рассвет Третьей Мировой Войны

Качество: BDRip 720p
Формат: MKV
Видео кодек: H.264
Аудио кодек: DTS
Видео: 1280x534 (2.35:1), 23.976 fps, 5 958 Kbps (0.364 bit/pixel)
Аудио#1: DTS, 48.0 KHz, 6 ch, 1 510 Kbps, CBR (Russian)
Аудио#2: DTS, 48.0 KHz, 6 ch, 1 510 Kbps, CBR (English)
Субтитры: Russian, English, English, English











Общее
Уникальный идентификатор : 192605371091231955340619241629859322536 (0x90E671F63B38750ABA3EA1EA90961AA8)
Полное имя : F:Неуловимые.2012.720p.BDRip.DTS.Rus.Eng..mkv
Формат : Matroska
Версия формата : Version 2
Размер файла : 5,97 Гбайт
Продолжительность : 1 ч. 33 м.
Общий поток : 9160 Кбит/сек
Название фильма : Red Dawn (2012)
Дата кодирования : UTC 2013-04-20 01:04:29
Программа кодирования : mkvmerge v3.4.0 ('Rapunzel') built on May 15 2010 09:38:20
Библиотека кодирования : libebml v0.8.0 + libmatroska v0.9.0

Видео
Идентификатор : 1
Формат : AVC
Формат/Информация : Advanced Video Codec
Профиль формата : High@L4.1
Параметр CABAC формата : Да
Параметр ReFrames формата : 11 кадров
Идентификатор кодека : V_MPEG4/ISO/AVC
Продолжительность : 1 ч. 33 м.
Битрейт : 5960 Кбит/сек
Ширина : 1280 пикселей
Высота : 534 пикселя
Соотношение сторон : 2,40:1
Режим частоты кадров : Постоянный
Частота кадров : 23,976 кадра/сек
Цветовое пространство : YUV
Субдискретизация насыщенности : 4:2:0
Битовая глубина : 8 бит
Тип развёртки : Прогрессивная
Бит/(Пиксели*Кадры) : 0.364
Размер потока : 3,89 Гбайт (65%)
Заголовок : Red Dawn (2012) - Release for HDCLUB
Библиотека кодирования : x264 core 129 r2245 bc13772
Настройки программы : cabac=1 / ref=11 / deblock=1:-3:-3 / analyse=0x3:0x133 / me=umh / subme=10 / psy=1 / psy_rd=1.10:0.00 / mixed_ref=1 / me_range=24 / chroma_me=1 / trellis=2 / 8x8dct=1 / cqm=0 / deadzone=21,11 / fast_pskip=0 / chroma_qp_offset=-2 / threads=12 / lookahead_threads=2 / sliced_threads=0 / nr=0 / decimate=0 / interlaced=0 / bluray_compat=0 / constrained_intra=0 / bframes=8 / b_pyramid=2 / b_adapt=2 / b_bias=0 / direct=3 / weightb=1 / open_gop=0 / weightp=2 / keyint=240 / keyint_min=23 / scenecut=40 / intra_refresh=0 / rc_lookahead=60 / rc=crf / mbtree=0 / crf=16.7 / qcomp=0.75 / qpmin=0 / qpmax=69 / qpstep=4 / vbv_maxrate=50000 / vbv_bufsize=62500 / crf_max=0.0 / nal_hrd=none / ip_ratio=1.30 / pb_ratio=1.25 / aq=1:0.70
Язык : English
Default : Да
Forced : Нет

Аудио #1
Идентификатор : 2
Формат : DTS
Формат/Информация : Digital Theater Systems
Режим : 16
Параметр Endianness формата : Big
Идентификатор кодека : A_DTS
Продолжительность : 1 ч. 33 м.
Вид битрейта : Постоянный
Битрейт : 1509 Кбит/сек
Каналы : 6 каналов
Расположение каналов : Front: L C R, Side: L R, LFE
Частота : 48,0 КГц
Битовая глубина : 24 бит
Метод сжатия : С потерями
Размер потока : 1008 Мбайт (16%)
Заголовок : DTS 5.1 @ 1536 kbps - DUB, Blu-ray
Язык : Russian
Default : Да
Forced : Нет

Аудио #2
Идентификатор : 3
Формат : DTS
Формат/Информация : Digital Theater Systems
Режим : 16
Параметр Endianness формата : Big
Идентификатор кодека : A_DTS
Продолжительность : 1 ч. 33 м.
Вид битрейта : Постоянный
Битрейт : 1509 Кбит/сек
Каналы : 6 каналов
Расположение каналов : Front: L C R, Side: L R, LFE
Частота : 48,0 КГц
Битовая глубина : 24 бит
Метод сжатия : С потерями
Задержка видео : 11 мс.
Размер потока : 1008 Мбайт (16%)
Заголовок : DTS 5.1 @ 1536 kbps
Язык : English
Default : Нет
Forced : Нет

Текст #1
Идентификатор : 4
Формат : UTF-8
Идентификатор кодека : S_TEXT/UTF8
Идентификатор кодека/Информация : UTF-8 Plain Text
Заголовок : Blu-ray
Язык : Russian
Default : Нет
Forced : Нет

Текст #2
Идентификатор : 5
Формат : UTF-8
Идентификатор кодека : S_TEXT/UTF8
Идентификатор кодека/Информация : UTF-8 Plain Text
Заголовок : Full
Язык : English
Default : Нет
Forced : Нет

Текст #3
Идентификатор : 6
Формат : UTF-8
Идентификатор кодека : S_TEXT/UTF8
Идентификатор кодека/Информация : UTF-8 Plain Text
Заголовок : SDH
Язык : English
Default : Нет
Forced : Нет

Текст #4
Идентификатор : 7
Формат : UTF-8
Идентификатор кодека : S_TEXT/UTF8
Идентификатор кодека/Информация : UTF-8 Plain Text
Заголовок : SDH Colored
Язык : English
Default : Нет
Forced : Нет

Меню
00:00:00.000 : :00:00:00.000
00:02:54.383 : :00:02:54.383
00:05:01.384 : :00:05:01.384
00:07:54.474 : :00:07:54.474
00:10:24.833 : :00:10:24.833
00:16:08.217 : :00:16:08.217
00:18:55.551 : :00:18:55.551
00:21:32.583 : :00:21:32.583
00:23:02.798 : :00:23:02.798
00:27:06.667 : :00:27:06.667
00:31:16.833 : :00:31:16.833
00:36:29.396 : :00:36:29.396
00:41:27.985 : :00:41:27.985
00:43:40.743 : :00:43:40.743
00:50:37.618 : :00:50:37.618
00:53:56.442 : :00:53:56.442
00:57:04.171 : :00:57:04.171
00:59:06.918 : :00:59:06.918
01:03:11.454 : :01:03:11.454
01:07:17.075 : :01:07:17.075
01:09:55.858 : :01:09:55.858
01:11:51.098 : :01:11:51.098
01:15:40.911 : :01:15:40.911
01:18:19.904 : :01:18:19.904
01:20:55.809 : :01:20:55.809
01:22:55.262 : :01:22:55.262
01:25:58.695 : :01:25:58.695
01:28:26.301 : :01:28:26.301


Неуловимые скачать торрент






pb.wtf



Скачать Неуловимые через торрент http://pic.kartinco.top/images/2/h7mu2tgqiw.png Скачать фильм Неуловимые через торрент бесплантно в хорошем качестве Описание: Недалекое будущее. Новый оружия сделал даже крупнейшие сверхдержавы беспомощными перед массированным вторжением войск ... 9.2 10 26
Info! Золотая раздача, скачанное не засчитывается.
Торрент: Зарегистрирован [2013-04-21 12:24] · скачан: 364 раз
Статус: √ проверено
Размер: 5.97 GB
Как cкачать? Как скачать Неуловимые через торрент | qTorrent

% Раздел Тема Автор DL S | L
Фильмы 2012 [ 1.47 GB ] Неуловимые / Red Dawn [2012 военный HDRip "BD RUS"] coc900 Скачать
1 | 0
Фильмы (DVD фильмы) [ 7.01 GB ] Неуловимые / Red Dawn [2012 военный DVD9] R5 voovaz Скачать
1 | 0
Фильмы 2012 [ 1.37 GB ] Неуловимые / Красный рассвет / Red Dawn [2012 HDRip] MVO [BaibaKo] Ворон Скачать
1 | 0
Фильмы 2012 [ 1.37 GB ] Неуловимые / Красный рассвет / Red Dawn [2012 HDRip] DUB [ лицензия ] Ворон Скачать
1 | 0
Фильмы 2012 [ 700 MB ] Неуловимые / Красный рассвет / Red Dawn [2012 HDRip] DUB [ лицензия ] Ворон Скачать
1 | 0
Фильмы 2012 [ 700 MB ] Неуловимые / Красный рассвет / Red Dawn [2012 HDRip] MVO [BaibaKo] Ворон Скачать
1 | 0

28-11-2019 20:33  

Отключить всю рекламу на сайте

01-02-2014 07:51 Неуловимые Скачать торрент  

Честно говоря фильм так себе. Когда нечего смотреть вообще или надо убить время сойдет, но только на один разpb.wtf



    Дорогой пользователь! Огромная просьба, поблагодарите релизера, оцените раздачу и оставьте свои комментарий, если Вы скачали Неуловимые через торрент бесплатно! Внесите свою лепту в развитие PiratBit!
    Комментировать посты могут только пользователи прошедшие не сложную регистрацию
    Показать сообщения:    

    Неуловимые через торрент
    Скачать бесплатно Неуловимые
    Неуловимые скачать торрент
    Неуловимые смотреть онлайн
    Cкачать фильм Неуловимые бесплатно
    Неуловимые скачать торрент в хорошем качестве
    Неуловимые смотреть онлайн бесплатно в хорошем качестве


    Вы не можете начинать темы
    Вы не можете отвечать на сообщения
    Вы не можете редактировать свои сообщения
    Вы не можете удалять свои сообщения
    Вы не можете голосовать в опросах
    Вы не можете прикреплять файлы к сообщениям
    Вы можете скачивать файлы