Ссылка на приватное зеркало нашего сайта всего за 1$. Внимание количество ограничено!!!

2 сезон

iTunes

1 сезон

1

iTunes

iTunes

iTunes

1 сезон

RePack

30

ИГРА 18+

pack

ВАЖНО

!!Акция!!

Alien_RageХит недели

RePack

MK11
pack

Забери бонус

RePack

jed

!!Акция!!

Alien_Rage

RePack

fifa19

RePack

Assassins Creed: Odyssey

RePack

NEED FOR SPEED™ PAYBACK

4 сезон

9 сезон

Бесстыжие 9 сезон

Все сериалы

все сериалы на PB.wtf

RePack

FAR CRY 5
  

Очень опасная штучка / One for the Money (Джули Энн Робинсон) [2012 г., боевик, триллер, мелодрама, комедия, криминал, BDRip 720p, Дубляж, лицензия] pb.wtf

Очень опасная штучка через торрент pb.wtf

Размер: 4.37 GB | Добавлен: 7 лет 6 мес. назад | Торрент скачан:119 раз
Скачать  

21-04-2013 12:49 Очень опасная штучка Скачать торрент  



Очень опасная штучка / One for the Money
«Когда мужчины не понимают по-хорошему»

Год выпуска: 2012
Страна: США
Жанр: боевик, триллер, мелодрама, комедия, криминал,
Продолжительность: 01:31:18
Перевод: Дубляж, Лицензия
Тип релиза: Лицензия
Субтитры: Есть

Режиссер: Джули Энн Робинсон
Продюссер: Венди Файнерман, Сидни Киммел, Гари Лучези
Сценарий: Стэйси Шерман, Карен Рэй, Лиз Бриксиус

Бюджет: $40 000 000
Премьера в мире: 26 января 2012


Мировой рейтинг IMDB 5.10 (21 079)


В ролях: Кэтрин Хайгл, Джейсон О’Мара, Дэниел Сунджата, Джон Легуизамо, Шерри Шеперд, Дебби Рейнолдс, Дебра Монк, Нат Муни, Адам Пол, Фишер Стивенс, Ирина Киреева, Сергей Бурунов, Пётр Иващенко, Андрей Бархударов, Мария Овчинникова,

Описание: Продавщица нижнего белья в отставке Стэфани Плам нашла новую работу. Отныне она охотится на мужчин, за поимку которых назначена солидная награда. Ее главное оружие — женская интуиция и модные туфли на высоких каблуках. Но даже они бессильны перед главной целью — мужчиной ее мечты. Он красив, остроумен и смертельно опасен, и при этом он её бывший.

Качество: BDRip 720p
Формат: MKV
Видео кодек: H.264
Аудио кодек: AC3
Видео: 1280x536 (2.35:1), 23.976 fps, 5 575 Kbps (0.339 bit/pixel)
Аудио#1: AC-3, 48.0 KHz, 6 ch, 640 Kbps, CBR (Russian)
Аудио#2: AC-3, 48.0 KHz, 6 ch, 640 Kbps, CBR (English)
Субтитры: Russian








Общее
Уникальный идентификатор : 179117154376842630488690113909389796344 (0x86C0B588AD5FE8BCBD42040F761C23F8)
Полное имя : F:Очень опасная штучка.2012.RU.720p.x264.Rus.Eng.mkv
Формат : Matroska
Версия формата : Version 2
Размер файла : 4,37 Гбайт
Продолжительность : 1 ч. 31 м.
Общий поток : 6852 Кбит/сек
Название фильма : HANSMER
Дата кодирования : UTC 2012-02-29 14:56:21
Программа кодирования : mkvmerge v5.3.0 ('I could have danced') built on Feb 9 2012 10:38:07
Библиотека кодирования : libebml v1.2.3 + libmatroska v1.3.0

Видео
Идентификатор : 1
Формат : AVC
Формат/Информация : Advanced Video Codec
Профиль формата : High@L4.1
Параметр CABAC формата : Да
Параметр ReFrames формата : 12 кадров
Идентификатор кодека : V_MPEG4/ISO/AVC
Продолжительность : 1 ч. 31 м.
Битрейт : 5575 Кбит/сек
Ширина : 1280 пикселей
Высота : 536 пикселей
Соотношение сторон : 2,40:1
Режим частоты кадров : Постоянный
Частота кадров : 23,976 кадра/сек
Цветовое пространство : YUV
Субдискретизация насыщенности : 4:2:0
Битовая глубина : 8 бит
Тип развёртки : Прогрессивная
Бит/(Пиксели*Кадры) : 0.339
Размер потока : 3,47 Гбайт (79%)
Заголовок : One.for.the.Money.2012.Blu-ray.RU.720p.x264-NiP
Библиотека кодирования : x264 core 120 r2164 da19765
Настройки программы : cabac=1 / ref=12 / deblock=1:-3:-3 / analyse=0x3:0x113 / me=tesa / subme=11 / psy=1 / psy_rd=1.00:0.00 / mixed_ref=1 / me_range=32 / chroma_me=1 / trellis=2 / 8x8dct=1 / cqm=0 / deadzone=21,11 / fast_pskip=0 / chroma_qp_offset=-2 / threads=12 / sliced_threads=0 / nr=0 / decimate=0 / interlaced=0 / bluray_compat=0 / constrained_intra=0 / bframes=9 / b_pyramid=2 / b_adapt=2 / b_bias=0 / direct=3 / weightb=1 / open_gop=0 / weightp=2 / keyint=240 / keyint_min=24 / scenecut=40 / intra_refresh=0 / rc_lookahead=60 / rc=2pass / mbtree=0 / bitrate=5575 / ratetol=1.0 / qcomp=0.80 / qpmin=0 / qpmax=69 / qpstep=4 / cplxblur=20.0 / qblur=0.5 / vbv_maxrate=50000 / vbv_bufsize=62500 / nal_hrd=none / ip_ratio=1.40 / pb_ratio=1.30 / aq=1:0.80
Язык : English
Default : Да
Forced : Нет
Коэффициенты матрицы : BT.709

Аудио #1
Идентификатор : 2
Формат : AC-3
Формат/Информация : Audio Coding 3
Расширение режима : CM (complete main)
Параметр Endianness формата : Big
Идентификатор кодека : A_AC3
Продолжительность : 1 ч. 31 м.
Вид битрейта : Постоянный
Битрейт : 640 Кбит/сек
Каналы : 6 каналов
Расположение каналов : Front: L C R, Side: L R, LFE
Частота : 48,0 КГц
Битовая глубина : 16 бит
Метод сжатия : С потерями
Размер потока : 418 Мбайт (9%)
Язык : Russian
Default : Да
Forced : Нет

Аудио #2
Идентификатор : 3
Формат : AC-3
Формат/Информация : Audio Coding 3
Расширение режима : CM (complete main)
Параметр Endianness формата : Big
Идентификатор кодека : A_AC3
Продолжительность : 1 ч. 31 м.
Вид битрейта : Постоянный
Битрейт : 640 Кбит/сек
Каналы : 6 каналов
Расположение каналов : Front: L C R, Side: L R, LFE
Частота : 48,0 КГц
Битовая глубина : 16 бит
Метод сжатия : С потерями
Размер потока : 418 Мбайт (9%)
Язык : English
Default : Нет
Forced : Нет

Текст
Идентификатор : 4
Формат : UTF-8
Идентификатор кодека : S_TEXT/UTF8
Идентификатор кодека/Информация : UTF-8 Plain Text
Язык : Russian
Default : Нет
Forced : Нет

Меню
00:00:00.000 : en:Chapter 1
00:05:45.845 : en:Chapter 2
00:13:55.251 : en:Chapter 3
00:17:45.439 : en:Chapter 4
00:24:09.073 : en:Chapter 5
00:28:38.842 : en:Chapter 6
00:34:31.111 : en:Chapter 7
00:38:43.613 : en:Chapter 8
00:44:44.807 : en:Chapter 9
00:50:35.032 : en:Chapter 10
00:55:53.600 : en:Chapter 11
01:02:16.608 : en:Chapter 12
01:08:19.512 : en:Chapter 13
01:12:40.606 : en:Chapter 14
01:20:52.765 : en:Chapter 15
01:24:05.249 : en:Chapter 16


Очень опасная штучка скачать торрент






pb.wtf



Скачать Очень опасная штучка через торрент http://pic.kartinco.top/images/2/dvyjum8lum.png Скачать фильм Очень опасная штучка через торрент бесплантно в хорошем качестве Описание: Продавщица нижнего белья в отставке Стэфани Плам нашла новую работу. Отныне она охотится на мужчин, за поимку которых назначена ... 10 10 8
Info! Золотая раздача, скачанное не засчитывается.
Торрент: Зарегистрирован [2013-04-21 12:49] · скачан: 119 раз
Статус: √ проверено
Размер: 4.37 GB
Как cкачать? Как скачать Очень опасная штучка через торрент | qTorrent

% Раздел Тема Автор DL S | L
Фильмы 2012 [ 2.17 GB ] Очень опасная штучка / One for the Money [2012 BDRip лицензия] coc900 Скачать
1 | 0
Фильмы (DVD фильмы) [ 5.55 GB ] Очень опасная штучка / One for the Money [2012 DVD9] R5 voovaz Скачать
1 | 0
Фильмы (Blu-ray, BD-Remux, HDDVD) [ 14.72 GB ] Очень опасная штучка / One for the Money [2012 Blu-Ray] shuller Скачать
1 | 0
Фильмы [HD 720p, 1080p] (Хороший звук DUB, MVO) [ 5.18 GB ] Очень опасная штучка / One for the Money [2012 BDRip лицензия] ~Relizer~ Скачать
1 | 0
Фильмы 2012 [ 1.43 GB ] Очень опасная штучка / One for the Money [2012 BDRip-AVC лицензия] Mr. Freeman Скачать
1 | 0

28-11-2019 20:33  

Отключить всю рекламу на сайте

    Дорогой пользователь! Огромная просьба, поблагодарите релизера, оцените раздачу и оставьте свои комментарий, если Вы скачали Очень опасная штучка через торрент бесплатно! Внесите свою лепту в развитие PiratBit!
    Комментировать посты могут только пользователи прошедшие не сложную регистрацию
    Показать сообщения:    

    Очень опасная штучка через торрент
    Скачать бесплатно Очень опасная штучка
    Очень опасная штучка скачать торрент
    Очень опасная штучка смотреть онлайн
    Cкачать фильм Очень опасная штучка бесплатно
    Очень опасная штучка скачать торрент в хорошем качестве
    Очень опасная штучка смотреть онлайн бесплатно в хорошем качестве


    Вы не можете начинать темы
    Вы не можете отвечать на сообщения
    Вы не можете редактировать свои сообщения
    Вы не можете удалять свои сообщения
    Вы не можете голосовать в опросах
    Вы не можете прикреплять файлы к сообщениям
    Вы можете скачивать файлы