1 сезон

3 сезон

iTunes

1

iTunes

MVO

iTunes

13

1 сезон

RePack

30

Deluxe

pack

Лицензия

ВАЖНО

ИГРА 18+

pack

RePack

MK11

RePack

jed

RePack

fifa19

RePack

RDR2

RePack

NEED FOR SPEED™ PAYBACK

4 сезон

9 сезон

Бесстыжие 9 сезон

Все сериалы

все сериалы на PB.wtf

RePack

FAR CRY 5

Anonymous, добрый день, мы катастрофически не успеваем собрать деньги на оплату серверов, помогите нам пожалуйста 5,10,15р., для нас важна любая помощь . В качестве благодарности мы отключим Вам всю рекламу на сайте (укажите свой ник в строку Ваше имя)!

×
  
Magnet ссылка

Фортуна Вегаса / Lay the Favorite (Стивен Фрирз / Stephen Frears) [2012, комедия, DVD5] R5 pb.wtf

Фортуна Вегаса через торрент pb.wtf

Размер: 3.89 GB | Добавлен: 8 лет 3 мес. назад | Торрент скачан:32 раза
Скачать  

20-04-2013 07:47 Фортуна Вегаса Скачать торрент  


Фортуна Вегаса / Lay the Favorite
Страна: США, Великобритания
Студия: Emmett/Furla Films, Likely Story, Random House Films, Ruby Films
Жанр: комедия
Год выпуска: 2012
Мировая премьера: 21 января 2012
Российская премьера: 21 марта 2013
Дата выхода DVD: 23 апреля 2013
Продолжительность: 01:33:33
Перевод: Профессиональный (дублированный) [Лицензия]
Cубтитры: нет
Оригинальная аудиодорожка: нет
Режиссер: Стивен Фрирз / Stephen Frears
В ролях: Ребекка Холл, Брюс Уиллис, Кэтрин Зета-Джонс, Джошуа Джексон, Фрэнк Грилло, Винс Вон, Джон Кэрролл Линч, Лаура Препон, Уэйн Пер, Джоэль Мюррей...
Описание: Девушка в 24 года переехала в Лас-Вегас, где нашла работу у добродушного толстяка Динка Хаймовица, содержащего нелегальную букмекерскую контору. Миляга Динк получил хорошее образование, но отличился в родном Нью-Йорке махинациями на ставках, из-за чего и сбежал в игорную столицу США. Игорным бизнесом Хаймовиц продолжал заниматься при помощи своего напарника букмекера Бернарда Роуза, который живет на Лонг-Айленде. Будучи математическими гениями, эти двое сколотили себе состояние на ставках и наивных клиентах, тогда как сама Бет научилась от них многим трюкам.
Бонусы: нет

Релиз группы:
Качество: DVD5 R5
Формат: DVD-Video
Видео кодек: MPEG2
Аудио кодек: AC3
Видео: PAL 16:9 (720x576(0.550)) MPEG Video, 25,000 кадр/сек, 5697 Кбит/сек
Аудио: Russian (Dolby AC3, 6 ch) 448 Кбит/сек, 48,0 КГц



Title: Fortuna.Vegasa.2012.DVD5
Size: 3.89 Gb ( 4 077 308,00 KBytes ) - DVD-5
Enabled regions: 1, 2, 3, 4, 5, 6, 7, 8

VTS_01 :
Play Length: 01:29:47
Video: PAL 16:9 (720x576) VBR, Auto Letterboxed
Audio:
Russian (Dolby AC3, 6 ch)

VTS_02 :
Play Length: 00:00:08
Video: PAL 4:3 (720x576) VBR

VTS_03 :
Play Length: 00:00:21
Video: PAL 16:9 (720x576) VBR, Auto Letterboxed
Audio:
English (Dolby AC3, 2 ch)

* Menus Information *

VIDEO_TS Menu
Video:
NTSC 4:3 (720x480) VBR
Auto Pan&Scan, Auto Letterboxed
Russian Language Unit :
Title Menu

VTS_01 Menu
Video:
PAL 16:9 (720x576) VBR
Auto Letterboxed
Audio:
Not specified (Dolby AC3, 2 ch)
Russian Language Unit :
Root Menu
Chapter (PTT) Menu

VTS_02 Menu
Video:
NTSC 4:3 (720x480) VBR
Auto Pan&Scan, Auto Letterboxed
Language Unit :
Subpicture Menu
Angle menu
Language Unit :

Language Unit :
Audio Menu
Chapter (PTT) Menu
Language Unit :

Language Unit :
Audio Menu
Chapter (PTT) Menu

VTS_03 Menu
Video:
NTSC 4:3 (720x480) VBR
Auto Pan&Scan, Auto Letterboxed
Language Unit :
Subpicture Menu
Angle menu
Language Unit :
Subpicture Menu
Angle menu
Language Unit :
Subpicture Menu
Angle menu
Language Unit :
Subpicture Menu
Angle menu
Language Unit :
Subpicture Menu
Angle menu
Общее
Полное имя : M:Новинки 2013Fortuna.Vegasa.2012.DVD5VIDEO_TSVTS_01_1.VOB
Формат : MPEG-PS
Размер файла : 1024 Мбайт
Продолжительность : 22 м.
Режим общего битрейта : Переменный
Общий поток : 6270 Кбит/сек

Видео
Идентификатор : 224 (0xE0)
Формат : MPEG Video
Версия формата : Version 2
Профиль формата : Main@Main
Параметр BVOP формата : Да
Параметр матрицы формата : Выборочная
Параметр GOP формата : M=3, N=15
Продолжительность : 22 м.
Вид битрейта : Переменный
Битрейт : 5697 Кбит/сек
Максимальный битрейт : 8000 Кбит/сек
Ширина : 720 пикселей
Высота : 576 пикселей
Соотношение сторон : 16:9
Частота кадров : 25,000 кадров/сек
Стандарт вещания : PAL
Цветовое пространство : YUV
Субдискретизация насыщенности : 4:2:0
Битовая глубина : 8 бит
Тип развёртки : Чересстрочная
Порядок развёртки : Верхнее поле первое
Метод сжатия : С потерями
Бит/(Пиксели*Кадры) : 0.550
Размер потока : 930 Мбайт (91%)

Аудио
Идентификатор : 189 (0xBD)-128 (0x80)
Формат : AC-3
Формат/Информация : Audio Coding 3
Расширение режима : CM (complete main)
Параметр Endianness формата : Big
Режим смешивания : DVD-Video
Продолжительность : 22 м.
Вид битрейта : Постоянный
Битрейт : 448 Кбит/сек
Каналы : 6 каналов
Расположение каналов : Front: L C R, Side: L R, LFE
Частота : 48,0 КГц
Битовая глубина : 16 бит
Метод сжатия : С потерями
Размер потока : 73,1 Мбайт (7%)










pb.wtf



Скачать Фортуна Вегаса через торрент http://s017.radikal.ru/i413/1304/6d/dbfecefb88d6.jpg Скачать фильм Фортуна Вегаса через торрент бесплантно в хорошем качестве Описание: Девушка в 24 года переехала в Лас-Вегас, где нашла работу у добродушного толстяка Динка Хаймовица, содержащего нелегальную ... 8.2 10 5
Info! Золотая раздача, скачанное не засчитывается.
Торрент: Зарегистрирован [2013-04-20 07:47] · скачан: 32 раз
Статус: √ проверено
Размер: 3.89 GB
Как cкачать? Как скачать Фортуна Вегаса через торрент | UTorrent

28-11-2019 20:33  

Отключить всю рекламу на сайте

    Дорогой пользователь! Огромная просьба, поблагодарите релизера, оцените раздачу и оставьте свои комментарий, если Вы скачали Фортуна Вегаса через торрент бесплатно! Внесите свою лепту в развитие PiratBit!
    Комментировать посты могут только пользователи прошедшие не сложную регистрацию
    Показать сообщения:    

    Фортуна Вегаса через торрент
    Скачать бесплатно Фортуна Вегаса
    Фортуна Вегаса скачать торрент
    Фортуна Вегаса смотреть онлайн
    Cкачать фильм Фортуна Вегаса бесплатно
    Фортуна Вегаса скачать торрент в хорошем качестве
    Фортуна Вегаса смотреть онлайн бесплатно в хорошем качестве


    Вы не можете начинать темы
    Вы не можете отвечать на сообщения
    Вы не можете редактировать свои сообщения
    Вы не можете удалять свои сообщения
    Вы не можете голосовать в опросах
    Вы не можете прикреплять файлы к сообщениям
    Вы можете скачивать файлы