Ссылка на приватное зеркало нашего сайта всего за 1$. Внимание количество ограничено!!!

2 сезон

iTunes

1 сезон

1

iTunes

iTunes

iTunes

1 сезон

RePack

30

ИГРА 18+

pack

ВАЖНО

!!Акция!!

Alien_RageХит недели

RePack

MK11
pack

Забери бонус

RePack

jed

!!Акция!!

Alien_Rage

RePack

fifa19

RePack

Assassins Creed: Odyssey

RePack

NEED FOR SPEED™ PAYBACK

4 сезон

9 сезон

Бесстыжие 9 сезон

Все сериалы

все сериалы на PB.wtf

RePack

FAR CRY 5
  

Группа 7 / Grupo 7 (Альберто Родригес) [2012 г., боевик, триллер, драма, BDRip 720p, MVO] pb.wtf

Группа 7 через торрент pb.wtf

Размер: 3.35 GB | Добавлен: 7 лет 6 мес. назад | Торрент скачан:150 раз
Скачать  

08-04-2013 12:01 Группа 7 Скачать торрент  

Группа 7 / Grupo 7
Год выпуска: 2012
Страна: Испания
Жанр: боевик, триллер, драма,
Продолжительность: 01:35:15
Перевод: Профессиональный многоголосый
Субтитры: Russian, English

Режиссер: Альберто Родригес
Продюссер: Хосе Антонио Фелес, Хервасио Иглесиас, Хосе Рафаэль Санчес-Монте
Сценарий: Рафаэль Кобос, Альберто Родригес

Мировой рейтинг IMDB 6.30 (1 612)


В ролях: Антонио де ла Торре, Марио Касас, Хоакин Нуньес, Хосе Мануэль Пога, Инма Куэста, Эстефания Де Лос Сантос, Альфонсо Санчез, Карлос Олайя, Лусия Герерро, Хулиан Вильягран,

Описание: 1987 год, Севилья. Группа 7 специальный отряд полиции с особо важным заданием: очистить город от проституции и наркотрафика, положив конец разъедающей все силе, которая захватила улицы. Во главе отряда стоят Анхель, молодой офицер, стремящийся стать детективом, и Рафаэль, жестокий и надменный, но очень эффективный опытный коп. Основной метод действия группы 7 — в борьбе с преступностью самим обходить закон с помощью насилия, угроз, полуправды и лжи. Для них все средства хороши. По мере того как они продвигаются в своей миссии вперед, два офицера становятся на разные пути. Анхель оказывается увлеченным своими амбициями, а Рафаэль неожиданно для самого себя привязывается и влюбляется в молодую красавицу Лючию, которую перед этим подбирает на улице.

Доп. информация: Оригинальные чаптеры

Качество: BDRip 720p
Формат: MKV
Видео кодек: H.264
Аудио кодек: AC3
Видео: 1280 x 544 (2.353) at 24.000 fps AVC at 4500 Кбит/сек
Аудио: AC-3 at 640 Кбит/сек 6 каналов, 48,0 КГц
скриншот   скриншот   скриншот  

Общее
Уникальный идентификатор : 229646621228408760254048720805704230670 (0xACC454980D10497D9FDD37BE0563E70E)
Полное имя : D:ФильмыGrupo.7.2012.BDRip.720p.=Sудья=.mkv
Формат : Matroska
Версия формата : Version 4 / Version 2
Размер файла : 3,35 Гбайт
Продолжительность : 1 ч. 35 м.
Общий поток : 5034 Кбит/сек
Название фильма : =Sудья=
Дата кодирования : UTC 2010-02-22 21:41:31
Программа кодирования : mkvmerge v5.9.0 ('On The Loose') built on Dec 9 2012 15:37:01
Библиотека кодирования : libebml v1.3.0 + libmatroska v1.4.0

Видео
Идентификатор : 1
Формат : AVC
Формат/Информация : Advanced Video Codec
Профиль формата : High@L3.1
Параметр CABAC формата : Да
Параметр ReFrames формата : 4 кадра
Режим смешивания : Header stripping
Идентификатор кодека : V_MPEG4/ISO/AVC
Продолжительность : 1 ч. 35 м.
Битрейт : 4500 Кбит/сек
Ширина : 1280 пикселей
Высота : 544 пикселя
Соотношение сторон : 2,35:1
Частота кадров : 24,000 кадра/сек
Цветовое пространство : YUV
Субдискретизация насыщенности : 4:2:0
Битовая глубина : 8 бит
Тип развёртки : Прогрессивная
Бит/(Пиксели*Кадры) : 0.269
Размер потока : 2,86 Гбайт (85%)
Библиотека кодирования : x264 core 125 r2200bm 999b753
Настройки программы : cabac=1 / ref=1 / deblock=1:0:0 / analyse=0x3:0x3 / me=dia / subme=1 / psy=1 / psy_rd=1.00:0.00 / mixed_ref=0 / me_range=16 / chroma_me=1 / trellis=0 / 8x8dct=1 / cqm=0 / deadzone=21,11 / fast_pskip=1 / chroma_qp_offset=0 / threads=3 / lookahead_threads=1 / sliced_threads=0 / nr=0 / decimate=1 / interlaced=0 / bluray_compat=0 / constrained_intra=0 / bframes=3 / b_pyramid=2 / b_adapt=1 / b_bias=0 / direct=1 / weightb=1 / open_gop=0 / weightp=1 / keyint=250 / keyint_min=24 / scenecut=40 / intra_refresh=0 / rc=abr / mbtree=0 / bitrate=4500 / ratetol=1.0 / qcomp=0.60 / qpmin=0 / qpmax=69 / qpstep=4 / ip_ratio=1.40 / pb_ratio=1.30 / aq=1:1.00
Default : Да
Forced : Нет

Аудио
Идентификатор : 2
Формат : AC-3
Формат/Информация : Audio Coding 3
Расширение режима : CM (complete main)
Режим смешивания : Header stripping
Идентификатор кодека : A_AC3
Продолжительность : 1 ч. 35 м.
Вид битрейта : Постоянный
Битрейт : 640 Кбит/сек
Каналы : 6 каналов
Расположение каналов : Front: L C R, Side: L R, LFE
Частота : 48,0 КГц
Битовая глубина : 16 бит
Метод сжатия : С потерями
Размер потока : 436 Мбайт (13%)
Заголовок : Профессиональный многоголосый
Язык : Russian
Default : Да
Forced : Нет

Текст #1
Идентификатор : 3
Формат : UTF-8
Идентификатор кодека : S_TEXT/UTF8
Идентификатор кодека/Информация : UTF-8 Plain Text
Заголовок : (Антон Кедров (antoniolagrande)
Язык : Russian
Default : Нет
Forced : Нет

Текст #2
Идентификатор : 4
Формат : UTF-8
Идентификатор кодека : S_TEXT/UTF8
Идентификатор кодека/Информация : UTF-8 Plain Text
Язык : English
Default : Нет
Forced : Нет

Меню
00:00:00.000 : en:Chapter 01
00:11:50.458 : en:Chapter 02
00:23:53.041 : en:Chapter 03
00:34:38.750 : en:Chapter 04
00:48:38.666 : en:Chapter 05
01:00:24.583 : en:Chapter 06
01:12:23.375 : en:Chapter 07
01:24:12.625 : en:Chapter 08


Группа 7 скачать торрент


pb.wtf



Скачать Группа 7 через торрент http://pic.kartinco.top/images/2/dkximegb3s.png Скачать фильм Группа 7 через торрент бесплантно в хорошем качестве Описание: 1987 год, Севилья. Группа 7 специальный отряд полиции с особо важным заданием: очистить город от проституции и наркотрафика, ... 9.7 10 15
Info! Золотая раздача, скачанное не засчитывается.
Торрент: Зарегистрирован [2013-04-08 12:01] · скачан: 150 раз
Статус: √ проверено
Размер: 3.35 GB
Как cкачать? Как скачать Группа 7 через торрент | qTorrent

% Раздел Тема Автор DL S | L
Фильмы 2012 [ 1.45 GB ] Седьмая группа / Группа 7 / Grupo 7 / Unit 7 [2012 HDRip-AVC] MVO sokol_ok Скачать
2 | 0
Фильмы (Blu-ray, BD-Remux, HDDVD) [ 22.65 GB ] Группа 7 / Grupo 7 [2012 Blu Ray 1080p MVO лицензия] Ke$h@ Скачать
1 | 1
Фильмы 2012 [ 1.45 GB ] Группа 7 / Grupo 7 [2012 НDRip] лицензия diletant Скачать
1 | 0
Фильмы [HD 720p, 1080p] (Хороший звук DUB, MVO) [ 9.09 GB ] Группа 7 / Grupo 7 [2012 BDRip 1080p + Оригинал+AVO] Trava-HD Скачать
1 | 0

28-11-2019 20:33  

Отключить всю рекламу на сайте

08-04-2013 16:24 Группа 7 Скачать торрент  

как фильм?pb.wtf



    Дорогой пользователь! Огромная просьба, поблагодарите релизера, оцените раздачу и оставьте свои комментарий, если Вы скачали Группа 7 через торрент бесплатно! Внесите свою лепту в развитие PiratBit!
    Комментировать посты могут только пользователи прошедшие не сложную регистрацию
    Показать сообщения:    

    Группа 7 через торрент
    Скачать бесплатно Группа 7
    Группа 7 скачать торрент
    Группа 7 смотреть онлайн
    Cкачать фильм Группа 7 бесплатно
    Группа 7 скачать торрент в хорошем качестве
    Группа 7 смотреть онлайн бесплатно в хорошем качестве


    Вы не можете начинать темы
    Вы не можете отвечать на сообщения
    Вы не можете редактировать свои сообщения
    Вы не можете удалять свои сообщения
    Вы не можете голосовать в опросах
    Вы не можете прикреплять файлы к сообщениям
    Вы можете скачивать файлы