Ссылка на приватное зеркало нашего сайта всего за 1$. Внимание количество ограничено!!!

2 сезон

iTunes

1 сезон

1

2 сезон

2 сезон

iTunes

1 сезон

RePack

30

Ultimate

ВАЖНО

ИГРА 18+

pack

RePack

MK11
pack

Забери бонус

RePack

jed

!!Акция!!

Alien_Rage

RePack

fifa19

RePack

Assassins Creed: Odyssey

RePack

NEED FOR SPEED™ PAYBACK

4 сезон

9 сезон

Бесстыжие 9 сезон

Все сериалы

все сериалы на PB.wtf

RePack

FAR CRY 5
  

Группа 7 / Grupo 7 (Альберто Родригес) [2012 г., боевик, триллер, драма, Blu Ray, 1080p, MVO, лицензия] pb.wtf

Группа 7 через торрент pb.wtf

Качают: 1 [ 0 KB/s ]
Размер: 22.65 GB | Добавлен: 7 лет 7 мес. назад | Торрент скачан:18 раз
Скачать  

07-04-2013 20:00 Группа 7 Скачать торрент  

Группа 7 / Grupo 7

«Поиски правды приводят в тупик»

Год выпуска: 2012
Страна: Испания
Жанр: боевик, триллер, драма,
Продолжительность: 01:35:15
Перевод: Профессиональный многоголосый, Лицензия
Тип релиза: Лицензия
Субтитры: Есть

Режиссер: Альберто Родригес
Продюссер: Хосе Антонио Фелес, Хервасио Иглесиас, Хосе Рафаэль Санчес-Монте
Сценарий: Рафаэль Кобос, Альберто Родригес

Бюджет: €3 500 000

Мировой рейтинг IMDB 6.30 (1 612)


В ролях: Антонио де ла Торре, Марио Касас, Хоакин Нуньес, Хосе Мануэль Пога, Инма Куэста, Эстефания Де Лос Сантос, Альфонсо Санчез, Карлос Олайя, Лусия Герерро, Хулиан Вильягран,

Описание: 1987 год, Севилья. Группа 7 специальный отряд полиции с особо важным заданием: очистить город от проституции и наркотрафика, положив конец разъедающей все силе, которая захватила улицы. Во главе отряда стоят Анхель, молодой офицер, стремящийся стать детективом, и Рафаэль, жестокий и надменный, но очень эффективный опытный коп. Основной метод действия группы 7 — в борьбе с преступностью самим обходить закон с помощью насилия, угроз, полуправды и лжи. Для них все средства хороши. По мере того как они продвигаются в своей миссии вперед, два офицера становятся на разные пути. Анхель оказывается увлеченным своими амбициями, а Рафаэль неожиданно для самого себя привязывается и влюбляется в молодую красавицу Лючию, которую перед этим подбирает на улице.

Качество: Blu Ray
Формат: BDMV
Видео кодек: H.264
Аудио кодек: DTS MA/AC3
Видео: 1920x1080 (16:9), 24.000 fps, 27.0 Mbps (0.543 bit/pixel)
Аудио#1: DTS MA / Core, 48.0 KHz, 6 ch, 1 561 Kbps / 1 510 Kbps, VBR Russian
Аудио#2: AC-3, 48.0 KHz, 6 ch, 384 Kbps, CBR Russian
Аудио#3: DTS MA / Core, 48.0 KHz, 6 ch, 1 561 Kbps / 1 510 Kbps, VBR Spain
Аудио#4: AC-3, 48.0 KHz, 6 ch, 384 Kbps, CBR Spain







Общее
Идентификатор : 0 (0x0)
Полное имя : F:Группа 7.BluRay.1080pBDMVSTREAM�0005.m2ts
Формат : BDAV
Формат/Информация : Blu-ray Video
Размер файла : 22,4 Гбайт
Продолжительность : 1 ч. 35 м.
Режим общего битрейта : Переменный
Общий поток : 33,6 Мбит/сек
Максимальный общий битрейт : 48,0 Мбит/сек

Видео
Идентификатор : 4113 (0x1011)
Идентификатор меню : 1 (0x1)
Формат : AVC
Формат/Информация : Advanced Video Codec
Профиль формата : High@L4.1
Параметр CABAC формата : Да
Параметр ReFrames формата : 4 кадра
Идентификатор кодека : 27
Продолжительность : 1 ч. 35 м.
Вид битрейта : Постоянный
Номинальный битрейт : 27,0 Мбит/сек
Ширина : 1920 пикселей
Высота : 1080 пикселей
Соотношение сторон : 16:9
Частота кадров : 24,000 кадра/сек
Стандарт вещания : NTSC
Цветовое пространство : YUV
Субдискретизация насыщенности : 4:2:0
Битовая глубина : 8 бит
Тип развёртки : Прогрессивная
Бит/(Пиксели*Кадры) : 0.543
Основные цвета : BT.709
Характеристики трансфера : BT.709
Коэффициенты матрицы : BT.709

Аудио #1
Идентификатор : 4352 (0x1100)
Идентификатор меню : 1 (0x1)
Формат : DTS
Формат/Информация : Digital Theater Systems
Профиль формата : MA / Core
Режим : 16
Параметр Endianness формата : Big
Режим смешивания : Stream extension
Идентификатор кодека : 134
Продолжительность : 1 ч. 35 м.
Вид битрейта : Переменный
Битрейт : Неизвестно / 1509 Кбит/сек
Каналы : 6 каналов
Расположение каналов : Front: L C R, Side: L R, LFE
Частота : 48,0 КГц
Битовая глубина : 16 бит
Метод сжатия : Без потерь / Lossy

Аудио #2
Идентификатор : 4353 (0x1101)
Идентификатор меню : 1 (0x1)
Формат : AC-3
Формат/Информация : Audio Coding 3
Расширение режима : CM (complete main)
Параметр Endianness формата : Big
Идентификатор кодека : 129
Продолжительность : 1 ч. 35 м.
Вид битрейта : Постоянный
Битрейт : 384 Кбит/сек
Каналы : 6 каналов
Расположение каналов : Front: L C R, Side: L R, LFE
Частота : 48,0 КГц
Битовая глубина : 16 бит
Метод сжатия : С потерями
Размер потока : 262 Мбайт (1%)

Аудио #3
Идентификатор : 4354 (0x1102)
Идентификатор меню : 1 (0x1)
Формат : DTS
Формат/Информация : Digital Theater Systems
Профиль формата : MA / Core
Режим : 16
Параметр Endianness формата : Big
Режим смешивания : Stream extension
Идентификатор кодека : 134
Продолжительность : 1 ч. 35 м.
Вид битрейта : Переменный
Битрейт : Неизвестно / 1509 Кбит/сек
Каналы : 6 каналов
Расположение каналов : Front: L C R, Side: L R, LFE
Частота : 48,0 КГц
Битовая глубина : 16 бит
Метод сжатия : Без потерь / Lossy

Аудио #4
Идентификатор : 4355 (0x1103)
Идентификатор меню : 1 (0x1)
Формат : AC-3
Формат/Информация : Audio Coding 3
Расширение режима : CM (complete main)
Параметр Endianness формата : Big
Идентификатор кодека : 129
Продолжительность : 1 ч. 35 м.
Вид битрейта : Постоянный
Битрейт : 384 Кбит/сек
Каналы : 6 каналов
Расположение каналов : Front: L C R, Side: L R, LFE
Частота : 48,0 КГц
Битовая глубина : 16 бит
Метод сжатия : С потерями
Размер потока : 262 Мбайт (1%)

Текст
Идентификатор : 4608 (0x1200)
Идентификатор меню : 1 (0x1)
Формат : PGS
Идентификатор кодека : 144


Группа 7 скачать торрент


pb.wtf



Скачать Группа 7 через торрент http://pic.kartinco.top/images/2/79g6jged9q.jpg Скачать фильм Группа 7 через торрент бесплантно в хорошем качестве Описание: 1987 год, Севилья. Группа 7 специальный отряд полиции с особо важным заданием: очистить город от проституции и наркотрафика, ... 10 10 5
Info! Золотая раздача, скачанное не засчитывается.
Торрент: Зарегистрирован [2013-04-07 20:00] · скачан: 18 раз
Статус: √ проверено
Размер: 22.65 GB
Как cкачать? Как скачать Группа 7 через торрент | qTorrent

% Раздел Тема Автор DL S | L
Фильмы 2012 [ 1.45 GB ] Седьмая группа / Группа 7 / Grupo 7 / Unit 7 [2012 HDRip-AVC] MVO sokol_ok Скачать
2 | 0
Фильмы 2012 [ 1.45 GB ] Группа 7 / Grupo 7 [2012 НDRip] лицензия diletant Скачать
1 | 0
Фильмы [HD 720p, 1080p] (Хороший звук DUB, MVO) [ 9.09 GB ] Группа 7 / Grupo 7 [2012 BDRip 1080p + Оригинал+AVO] Trava-HD Скачать
1 | 0
Фильмы [HD 720p, 1080p] (Хороший звук DUB, MVO) [ 3.35 GB ] Группа 7 / Grupo 7 [2012 BDRip 720p MVO] Sудья Скачать
1 | 0

28-11-2019 20:33  

Отключить всю рекламу на сайте

10-04-2013 08:07 Группа 7 Скачать торрент  

Встаньте на раздачу! Пжлста!pb.wtf



10-08-2013 19:01 Группа 7 Скачать торрент  

Раздача, ауууууууpb.wtf



    Дорогой пользователь! Огромная просьба, поблагодарите релизера, оцените раздачу и оставьте свои комментарий, если Вы скачали Группа 7 через торрент бесплатно! Внесите свою лепту в развитие PiratBit!
    Комментировать посты могут только пользователи прошедшие не сложную регистрацию
    Показать сообщения:    

    Группа 7 через торрент
    Скачать бесплатно Группа 7
    Группа 7 скачать торрент
    Группа 7 смотреть онлайн
    Cкачать фильм Группа 7 бесплатно
    Группа 7 скачать торрент в хорошем качестве
    Группа 7 смотреть онлайн бесплатно в хорошем качестве


    Вы не можете начинать темы
    Вы не можете отвечать на сообщения
    Вы не можете редактировать свои сообщения
    Вы не можете удалять свои сообщения
    Вы не можете голосовать в опросах
    Вы не можете прикреплять файлы к сообщениям
    Вы можете скачивать файлы