Ссылка на приватное зеркало нашего сайта всего за 1$. Внимание количество ограничено!!!

2 сезон

iTunes

1 сезон

1

iTunes

iTunes

iTunes

1 сезон

RePack

30

ИГРА 18+

pack

ВАЖНО

!!Акция!!

Alien_RageХит недели

RePack

MK11
pack

Забери бонус

RePack

jed

!!Акция!!

Alien_Rage

RePack

fifa19

RePack

Assassins Creed: Odyssey

RePack

NEED FOR SPEED™ PAYBACK

4 сезон

9 сезон

Бесстыжие 9 сезон

Все сериалы

все сериалы на PB.wtf

RePack

FAR CRY 5
  

Все псы попадают в рай 2 / All Dogs Go to Heaven 2 (Ларри Лекер / Larry Leker, Пол Сабелла / Paul Sabella) [1996, мультфильм, фэнтези, мелодрама, приключения, семейный, BDRip] MVO pb.wtf

Все псы попадают в рай 2 через торрент pb.wtf

Раздают: 1 [ 0 KB/s ]
Размер: 746 MB | Добавлен: 7 лет 6 мес. назад | Торрент скачан:240 раз
Скачать  

25-04-2013 06:04 Все псы попадают в рай 2 Скачать торрент  

Все псы попадают в рай 2 / All Dogs Go To Heaven 2
Год выпуска: 1996
Страна: США
Жанр: мультфильм, фэнтези, мелодрама, приключения, семейный
Продолжительность: 01:22:47
Перевод: Профессиональный (многолосый, закадровый) (Позитив-Мультимедиа)
Субтитры: нет

Режиссер: Ларри Лекер / Larry Leker, Пол Сабелла / Paul Sabella

Роли озвучивали: Эрнест Боргнайн, Биби Нойуэрт, Чарли Шин, Хэмилтон Кэмп, Стив Мэккалл, Дэн Кастелланета, Дом ДеЛуис, Тони Джей, Джим Каммингс, Уоллес Шоун

Описание: Все собаки могут попасть в рай… а некоторые счастливчики — даже вернуться обратно на землю. Именно это и случается, когда озорной кудряшка Чарли Баркин решает разыскать украденный из рая Волшебный Рожок. Предвкушая возможность поразвлечься, Чарли приглашает с собой своего приятеля Итчи. Путешествие начинается!
Не успев опомниться, друзья попадают в беду, но на помощь им приходит добрый мальчишка, убежавший из дома вместе со своей собакой — красавицей ирландским сеттером.
Но времени, чтобы вернуть драгоценный Рожок, остается все меньше и меньше, поэтому Чарли надо спешить! Ему предстоит испытать себя в схватке со злодеями и преодолеть множество препятствий на обратном пути в рай!

Качество: BDRip // BDRemux 1080p
Формат: AVI
Видео кодек: XviD
Аудио кодек: MP3
Видео: 656x352 (1.86:1), 23.976 fps, XviD build 50 ~1122 kbps avg, 0.20 bit/pixel
Аудио: 48 kHz, MPEG Layer 3, 2 ch, ~128.00 kbps avg
Раздача от:
D:Мои рипыAll.Dogs.Go.To.Heaven.2.1996.BDRip. [YTN] by dexter lex.avi
General
Complete name : D:Мои рипыAll.Dogs.Go.To.Heaven.2.1996.BDRip. [YTN] by dexter lex.avi
Format : AVI
Format/Info : Audio Video Interleave
File size : 746 MiB
Duration : 1h 22mn
Overall bit rate : 1 259 Kbps
Writing application : VirtualDubMod 1.5.10.3 | www.virtualdub-fr.org || (build 2550/release)
Writing library : VirtualDubMod build 2550/release
Video #0
ID : 0
Format : MPEG-4 Visual
Format profile : Advanced Simple@L5
Format settings, BVOP : 1
Format settings, QPel : No
Format settings, GMC : No warppoints
Format settings, Matrix : Custom
Codec ID : XVID
Codec ID/Hint : XviD
Duration : 1h 22mn
Bit rate : 1 122 Kbps
Width : 656 pixels
Height : 352 pixels
Display aspect ratio : 1.86:1
Frame rate : 23.976 fps
Color space : YUV
Chroma subsampling : 4:2:0
Bit depth : 8 bits
Scan type : Progressive
Compression mode : Lossy
Bits/(Pixel*Frame) : 0.203
Stream size : 664 MiB (89%)
Writing library : XviD 1.2.1 (UTC 2008-12-04)
Audio #1
ID : 1
Format : MPEG Audio
Format version : Version 1
Format profile : Layer 3
Codec ID : 55
Codec ID/Hint : MP3
Duration : 1h 22mn
Bit rate mode : Constant
Bit rate : 128 Kbps
Channel(s) : 2 channels
Sampling rate : 48.0 KHz
Compression mode : Lossy
Stream size : 75.7 MiB (10%)
Alignment : Aligned on interleaves
Interleave, duration : 42 ms (1.00 video frame)
Interleave, preload duration : 504 ms
Writing library : LAME3.99r
Encoding settings : -m s -V 4 -q 2 -lowpass 17 -b 128
http://multi-up.com/858386
pb.wtf



Скачать Все псы попадают в рай 2 через торрент http://i49.fastpic.ru/big/2013/0424/fa/c97927369f41edc092c06cc7d6e1ebfa.png Скачать фильм Все псы попадают в рай 2 через торрент бесплантно в хорошем качестве Описание: Все собаки могут попасть в рай… а некоторые счастливчики — даже вернуться обратно на землю. Именно это и случается, когда озорной ... 10 10 6
Info! Золотая раздача, скачанное не засчитывается.
Торрент: Зарегистрирован [2013-04-25 06:04] · скачан: 240 раз
Статус: √ проверено
Размер: 746 MB
Как cкачать? Как скачать Все псы попадают в рай 2 через торрент | qTorrent

28-11-2019 20:33  

Отключить всю рекламу на сайте

    Дорогой пользователь! Огромная просьба, поблагодарите релизера, оцените раздачу и оставьте свои комментарий, если Вы скачали Все псы попадают в рай 2 через торрент бесплатно! Внесите свою лепту в развитие PiratBit!
    Комментировать посты могут только пользователи прошедшие не сложную регистрацию
    Показать сообщения:    

    Все псы попадают в рай 2 через торрент
    Скачать бесплатно Все псы попадают в рай 2
    Все псы попадают в рай 2 скачать торрент
    Все псы попадают в рай 2 смотреть онлайн
    Cкачать фильм Все псы попадают в рай 2 бесплатно
    Все псы попадают в рай 2 скачать торрент в хорошем качестве
    Все псы попадают в рай 2 смотреть онлайн бесплатно в хорошем качестве


    Вы не можете начинать темы
    Вы не можете отвечать на сообщения
    Вы не можете редактировать свои сообщения
    Вы не можете удалять свои сообщения
    Вы не можете голосовать в опросах
    Вы не можете прикреплять файлы к сообщениям
    Вы можете скачивать файлы