2 сезон

iTunes

1 сезон

1

iTunes

iTunes

iTunes

1 сезон

RePack

30

ИГРА 18+

pack

ВАЖНО

!!Акция!!

Alien_RageХит недели

RePack

MK11
pack

Забери бонус

RePack

jed

!!Акция!!

Alien_Rage

RePack

fifa19

RePack

Assassins Creed: Odyssey

RePack

NEED FOR SPEED™ PAYBACK

4 сезон

9 сезон

Бесстыжие 9 сезон

Все сериалы

все сериалы на PB.wtf

RePack

FAR CRY 5
  

Дом с паранормальными явлениями / A Haunted House (Майкл Тиддес) [2013 г., ужасы, комедия, BDRip 1080p, Дубляж, лицензия] pb.wtf

Дом с паранормальными явлениями через торрент pb.wtf

Размер: 6.8 GB | Добавлен: 7 лет 6 мес. назад | Торрент скачан:639 раз
Скачать  

25-04-2013 13:17 Дом с паранормальными явлениями Скачать торрент  

Дом с паранормальными явлениями / A Haunted House
«Здесь должен быть слоган»




Год выпуска: 2013
Страна: США / Automatik Entertainment, Endgame Entertainment, Wayans Bros. Entertainment
Жанр: ужасы, комедия
Продолжительность: 01:26:25
Перевод: Дублированный [лицензия]



Режиссер:
  • Майкл Тиддес
В ролях:
  • Марлон Уайанс, Эссенс Эткинс, Седрик «Развлекатель», Ник Свардсон, Дэвид Кокнер, Дейв Шеридан, Марлин Форте, Аланна Юбак, Эндрю Дэйли, Эффион Крокетт
Описание: Малкольм и Киша переезжают в дом своей мечты, но скоро понимают, что там уже проживает демон. Когда Киша становится одержимой, Малкольм обращается за помощью к священнику, экстрасенсу и команде охотников за привидениями.


Качество: BDRip 1080p
Формат: MKV
Видео кодек: AVC
Аудио кодек: AC3
Видео: 1920x1040 (16:9), 23.976 fps, 9 312 Kbps (0.195 bit/pixel)
Аудио #1: AC-3, 48.0 KHz, 6 ch, 448 Kbps, CBR (Russian)
Аудио #2: DTS, 48.0 KHz, 6 ch, 1 510 Kbps, CBR (English)
Субтитры: English
Формат : Matroska
Версия формата : Version 2
Размер файла : 6,80 Гбайт
Продолжительность : 1 ч. 26 м.
Общий поток : 11,3 Мбит/сек
Дата кодирования : UTC 2013-04-25 09:33:24
Программа кодирования : mkvmerge v5.2.0 ('I can't explain') built on Dec 18 2011 18:12:03
Библиотека кодирования : libebml v1.2.3 + libmatroska v1.3.0

Видео
Идентификатор : 1
Формат : AVC
Формат/Информация : Advanced Video Codec
Профиль формата : High@L4.1
Параметр CABAC формата : Да
Параметр ReFrames формата : 4 кадра
Идентификатор кодека : V_MPEG4/ISO/AVC
Продолжительность : 1 ч. 26 м.
Битрейт : 9312 Кбит/сек
Ширина : 1920 пикселей
Высота : 1040 пикселей
Соотношение сторон : 1,85:1
Режим частоты кадров : Постоянный
Частота кадров : 23,976 кадра/сек
Цветовое пространство : YUV
Субдискретизация насыщенности : 4:2:0
Битовая глубина : 8 бит
Тип развёртки : Прогрессивная
Бит/(Пиксели*Кадры) : 0.195
Размер потока : 5,48 Гбайт (81%)
Заголовок : Promised.Land.2012.BluRay.1080p.DTS.x264-CHD
Библиотека кодирования : x264 core 130 r2273 b3065e6
Настройки программы : cabac=1 / ref=4 / deblock=1:-3:-3 / analyse=0x3:0x113 / me=umh / subme=10 / psy=1 / psy_rd=1.05:0.10 / mixed_ref=1 / me_range=48 / chroma_me=1 / trellis=2 / 8x8dct=1 / cqm=0 / deadzone=21,11 / fast_pskip=0 / chroma_qp_offset=-2 / threads=12 / lookahead_threads=1 / sliced_threads=0 / nr=0 / decimate=1 / interlaced=0 / bluray_compat=0 / constrained_intra=0 / bframes=6 / b_pyramid=2 / b_adapt=2 / b_bias=0 / direct=3 / weightb=1 / open_gop=0 / weightp=2 / keyint=250 / keyint_min=23 / scenecut=40 / intra_refresh=0 / rc_lookahead=40 / rc=2pass / mbtree=0 / bitrate=9312 / ratetol=2.0 / qcomp=0.70 / qpmin=0 / qpmax=69 / qpstep=4 / cplxblur=20.0 / qblur=0.5 / vbv_maxrate=40000 / vbv_bufsize=30000 / nal_hrd=none / ip_ratio=1.40 / pb_ratio=1.30 / aq=2:1.00
Язык : English
Default : Да
Forced : Да

Аудио #1
Идентификатор : 2
Формат : AC-3
Формат/Информация : Audio Coding 3
Расширение режима : CM (complete main)
Параметр Endianness формата : Big
Идентификатор кодека : A_AC3
Продолжительность : 1 ч. 26 м.
Вид битрейта : Постоянный
Битрейт : 448 Кбит/сек
Каналы : 6 каналов
Расположение каналов : Front: L C R, Side: L R, LFE
Частота : 48,0 КГц
Битовая глубина : 16 бит
Метод сжатия : С потерями
Размер потока : 277 Мбайт (4%)
Заголовок : DD 5.1 @ 448 kbps - Dub, R5
Язык : Russian
Default : Да
Forced : Да

Аудио #2
Идентификатор : 3
Формат : DTS
Формат/Информация : Digital Theater Systems
Режим : 16
Параметр Endianness формата : Big
Идентификатор кодека : A_DTS
Продолжительность : 1 ч. 26 м.
Вид битрейта : Постоянный
Битрейт : 1509 Кбит/сек
Каналы : 6 каналов
Расположение каналов : Front: L C R, Side: L R, LFE
Частота : 48,0 КГц
Битовая глубина : 24 бит
Метод сжатия : С потерями
Размер потока : 933 Мбайт (13%)
Заголовок : DTS 5.1 @ 1536 kbps
Язык : English
Default : Нет
Forced : Нет

Текст
Идентификатор : 4
Формат : UTF-8
Идентификатор кодека : S_TEXT/UTF8
Идентификатор кодека/Информация : UTF-8 Plain Text
Язык : English
Default : Нет
Forced : Нет


[http://www.youtube.com/watch?feature=player_embedded&v=J50vA5VLR6k] [/url]
скриншот   скриншот   скриншот  
pb.wtf



Скачать Дом с паранормальными явлениями через торрент http://i46.fastpic.ru/big/2013/0425/e3/25d03bbdcbec44d86fcdef68bcc3d3e3.jpg Скачать фильм Дом с паранормальными явлениями через торрент бесплантно в хорошем качестве Описание: Малкольм и Киша переезжают в дом своей мечты, но скоро понимают, что там уже проживает демон. Когда Киша становится одержимой, ... 9.5 10 40
Info! Золотая раздача, скачанное не засчитывается.
Торрент: Зарегистрирован [2013-04-25 13:17] · скачан: 639 раз
Статус: √ проверено
Размер: 6.8 GB
Как cкачать? Как скачать Дом с паранормальными явлениями через торрент | qTorrent

% Раздел Тема Автор DL S | L
Фильмы 2014 [DVDrip, WEB-DLRip, HDrip] [ 2.14 GB ] Дом с паранормальными явлениями 2 / A Haunted House 2 [2014 BDRip-AVC от sokol_ok] Dub sokol_ok Скачать
2 | 0
Фильмы 2014 [DVDrip, WEB-DLRip, HDrip] [ 1.42 GB ] Дом с паранормальными явлениями 2 / A Haunted House 2 [2014 BDRip-AVC от sokol_ok] Dub sokol_ok Скачать
2 | 0
Фильмы 2013 [DVDrip, WEB-DLRip, HDrip] [ 2.19 GB ] Дом с паранормальными явлениями / A Haunted House [2013 BDRip-AVC] DUB potroks Скачать
1 | 0
Фильмы 2014 [DVDrip, WEB-DLRip, HDrip] [ 1.46 GB ] Дом с паранормальными явлениями 2 / A Haunted House 2 [2014 HDRip ""] coc900 Скачать
1 | 0
Фильмы 2014 [DVDrip, WEB-DLRip, HDrip] [ 2.14 GB ] Дом с паранормальными явлениями 2 / A Haunted House 2 [2014 BDRip-AVC] Dub potroks Скачать
1 | 0
Фильмы [HD 720p, 1080p] (Хороший звук DUB, MVO) [ 11.83 GB ] Дом с паранормальными явлениями / A Haunted House [2013 BDRip 1080p лицензия] Userman4ik Скачать
1 | 0
Фильмы 2013 [DVDrip, WEB-DLRip, HDrip] [ 1.37 GB ] Дом с паранормальными явлениями / A Haunted House [2013 HDRip лицензия] Seedtank Скачать
1 | 0

28-11-2019 20:33  

Отключить всю рекламу на сайте

25-04-2013 14:01 Дом с паранормальными явлениями Скачать торрент  

Фильм супер=)pb.wtf



25-04-2013 15:10 Дом с паранормальными явлениями Скачать торрент  

Встаньте на раздачу пжлста!pb.wtf



26-04-2013 18:16 Дом с паранормальными явлениями Скачать торрент  

Давно не смотрел подобного шедевра !pb.wtf



27-04-2013 13:33 Дом с паранормальными явлениями Скачать торрент  

Забавный фильм, в некоторых моментах ржали как сволочи =)pb.wtf



    Дорогой пользователь! Огромная просьба, поблагодарите релизера, оцените раздачу и оставьте свои комментарий, если Вы скачали Дом с паранормальными явлениями через торрент бесплатно! Внесите свою лепту в развитие PiratBit!
    Комментировать посты могут только пользователи прошедшие не сложную регистрацию
    Показать сообщения:    

    Дом с паранормальными явлениями через торрент
    Скачать бесплатно Дом с паранормальными явлениями
    Дом с паранормальными явлениями скачать торрент
    Дом с паранормальными явлениями смотреть онлайн
    Cкачать фильм Дом с паранормальными явлениями бесплатно
    Дом с паранормальными явлениями скачать торрент в хорошем качестве
    Дом с паранормальными явлениями смотреть онлайн бесплатно в хорошем качестве


    Вы не можете начинать темы
    Вы не можете отвечать на сообщения
    Вы не можете редактировать свои сообщения
    Вы не можете удалять свои сообщения
    Вы не можете голосовать в опросах
    Вы не можете прикреплять файлы к сообщениям
    Вы можете скачивать файлы