1 сезон

3 сезон

iTunes

1

Line

MVO

iTunes

13

1 сезон

RePack

30

Deluxe

pack

Лицензия

ВАЖНО

ИГРА 18+

pack

RePack

MK11

RePack

jed

RePack

fifa19

RePack

RDR2

RePack

NEED FOR SPEED™ PAYBACK

4 сезон

9 сезон

Бесстыжие 9 сезон

Все сериалы

все сериалы на PB.wtf

RePack

FAR CRY 5

Anonymous, добрый вечер, мы катастрофически не успеваем собрать деньги на оплату серверов, помогите нам пожалуйста 5,10,15р., для нас важна любая помощь . В качестве благодарности мы отключим Вам всю рекламу на сайте (укажите свой ник в строку Ваше имя)!

×
  
Magnet ссылка

Дом с паранормальными явлениями / A Haunted House (Майкл Тиддес / Michael Tiddes) [2013, ужасы, комедия, DVD9] R5 pb.wtf

Дом с паранормальными явлениями через торрент pb.wtf

Размер: 6.11 GB | Добавлен: 8 лет 3 мес. назад | Торрент скачан:111 раз
Скачать  

25-04-2013 20:03 Дом с паранормальными явлениями Скачать торрент  


Дом с паранормальными явлениями / A Haunted House
«Здесь должен быть слоган»
Страна: США
Студия: Automatik Entertainment, Endgame Entertainment, Wayans Bros. Entertainment
Жанр: ужасы, комедия
Год выпуска: 2013
Мировая премьера: 11 января 2013
Российская премьера: 17 января 2013
Дата выхода DVD: 25 апреля 2013
Дата выхода Blu-Ray: 25 апреля 2013
Продолжительность: 01:22:20
Перевод: Профессиональный (дублированный) [Лицензия]
Субтитры: русские
Оригинальная аудиодорожка: английский
Режиссер: Майкл Тиддес / Michael Tiddes
В ролях: Марлон Уайанс, Эссенс Эткинс, Седрик «Развлекатель», Ник Свардсон, Дэвид Кокнер, Дейв Шеридан, Марлен Форте, Аланна Юбак, Эндрю Дэйли, Эффион Крокетт
Описание: Малкольм и Киша переезжают в дом своей мечты, но скоро понимают, что там уже проживает демон. Когда Киша становится одержимой, Малкольм обращается за помощью к священнику, экстрасенсу и команде охотников за привидениями.
Бонусы: Анонсы

Релиз группы:
Качество: DVD9 R5
Формат: DVD-Video
Видео кодек: MPEG2
Аудио кодек: AC3 + DTS
Видео: PAL 16:9 (720x576(0.772)) MPEG Video, 25,000 кадр/сек, 8000 Кбит/сек
Аудио #1: Russian (Dolby AC3, 6 ch) 384 Кбит/сек, 48,0 КГц
Аудио #2: English (Dolby AC3, 6 ch) 384 Кбит/сек, 48,0 КГц
Аудио #3: Russian (DTS, 5 ch) 768 Кбит/сек, 48,0 КГц



Title: Dom.s.paranormalnymi.javlenijami.2013.DVD9
Size: 6.11 Gb ( 6 405 272,00 KBytes ) - DVD-9
Enabled regions: 1, 2, 3, 4, 5, 6, 7, 8

VTS_01 :
Play Length: 00:00:23
Video: PAL 4:3 (720x576) VBR

VTS_02 :
Play Length: 00:02:24
Video: PAL 16:9 (720x576) VBR, Auto Letterboxed
Audio:
Russian (Dolby AC3, 2 ch)
Russian (Dolby AC3, 2 ch)

VTS_03 :
Play Length: 00:01:59
Video: PAL 16:9 (720x576) VBR, Auto Letterboxed
Audio:
Russian (Dolby AC3, 2 ch)
Russian (Dolby AC3, 2 ch)

VTS_04 :
Play Length: 00:02:06
Video: PAL 16:9 (720x576) VBR, Auto Letterboxed
Audio:
Russian (Dolby AC3, 2 ch)
Russian (Dolby AC3, 2 ch)

VTS_05 :
Play Length: 01:22:20
Video: PAL 16:9 (720x576) VBR, Auto Pan&Scan, Auto Letterboxed
Audio:
Russian (Dolby AC3, 6 ch)
English (Dolby AC3, 6 ch)
Russian (DTS, 5 ch)
Subtitles:
Russian

* Menus Information *

VIDEO_TS Menu
Video:
PAL 16:9 (720x576) VBR
Auto Pan&Scan, Auto Letterboxed
English Language Unit :
Title Menu

VTS_01 Menu
Video:
PAL 16:9 (720x576) VBR
Auto Letterboxed
Audio:
Not specified (Dolby AC3, 2 ch)
English Language Unit :
Root Menu

VTS_02 Menu
Video:
PAL 4:3 (720x576) VBR
English Language Unit :
Root Menu

VTS_03 Menu
Video:
PAL 4:3 (720x576) VBR
English Language Unit :
Root Menu

VTS_04 Menu
Video:
PAL 4:3 (720x576) VBR
English Language Unit :
Root Menu

VTS_05 Menu
Video:
PAL 4:3 (720x576) VBR
English Language Unit :
Root Menu
Общее
Полное имя : M:Новинки 2013Dom.s.paranormalnymi.javlenijami.2013.DVD9VIDEO_TSVTS_05_2.VOB
Формат : MPEG-PS
Размер файла : 1024 Мбайт
Продолжительность : 14 м.
Общий поток : 9703 Кбит/сек

Видео
Идентификатор : 224 (0xE0)
Формат : MPEG Video
Версия формата : Version 2
Профиль формата : Main@Main
Параметр BVOP формата : Да
Параметр матрицы формата : По умолчанию
Параметр GOP формата : M=3, N=12
Продолжительность : 14 м.
Битрейт : 8000 Кбит/сек
Ширина : 720 пикселей
Высота : 576 пикселей
Соотношение сторон : 16:9
Частота кадров : 25,000 кадров/сек
Стандарт вещания : PAL
Цветовое пространство : YUV
Субдискретизация насыщенности : 4:2:0
Битовая глубина : 8 бит
Тип развёртки : Прогрессивная
Метод сжатия : С потерями
Бит/(Пиксели*Кадры) : 0.772
Размер потока : 843 Мбайт (82%)

Аудио #1
Идентификатор : 189 (0xBD)-128 (0x80)
Формат : AC-3
Формат/Информация : Audio Coding 3
Расширение режима : CM (complete main)
Параметр Endianness формата : Big
Режим смешивания : DVD-Video
Продолжительность : 14 м.
Вид битрейта : Постоянный
Битрейт : 384 Кбит/сек
Каналы : 6 каналов
Расположение каналов : Front: L C R, Side: L R, LFE
Частота : 48,0 КГц
Битовая глубина : 16 бит
Метод сжатия : С потерями
Задержка видео : -528 мс.
Размер потока : 40,5 Мбайт (4%)

Аудио #2
Идентификатор : 189 (0xBD)-129 (0x81)
Формат : AC-3
Формат/Информация : Audio Coding 3
Расширение режима : CM (complete main)
Параметр Endianness формата : Big
Режим смешивания : DVD-Video
Продолжительность : 14 м.
Вид битрейта : Постоянный
Битрейт : 384 Кбит/сек
Каналы : 6 каналов
Расположение каналов : Front: L C R, Side: L R, LFE
Частота : 48,0 КГц
Битовая глубина : 16 бит
Метод сжатия : С потерями
Задержка видео : -528 мс.
Размер потока : 40,5 Мбайт (4%)

Аудио #3
Идентификатор : 189 (0xBD)-138 (0x8A)
Формат : DTS
Формат/Информация : Digital Theater Systems
Режим : 16
Параметр Endianness формата : Big
Режим смешивания : DVD-Video
Продолжительность : 14 м.
Вид битрейта : Постоянный
Битрейт : 755 Кбит/сек
Каналы : 6 каналов
Расположение каналов : Front: L C R, Side: L R, LFE
Частота : 48,0 КГц
Битовая глубина : 24 бит
Метод сжатия : С потерями
Задержка видео : -581 мс.
Размер потока : 79,6 Мбайт (8%)

Текст
Идентификатор : 189 (0xBD)-32 (0x20)
Формат : RLE
Формат/Информация : Run-length encoding
Режим смешивания : DVD-Video
Продолжительность : 14 м.
Задержка видео : 440 мс.










pb.wtf



Скачать Дом с паранормальными явлениями через торрент http://s003.radikal.ru/i201/1304/8d/3de943ec566d.jpg Скачать фильм Дом с паранормальными явлениями через торрент бесплантно в хорошем качестве Описание: Малкольм и Киша переезжают в дом своей мечты, но скоро понимают, что там уже проживает демон. Когда Киша становится одержимой, ... 8 10 6
Info! Золотая раздача, скачанное не засчитывается.
Торрент: Зарегистрирован [2013-04-25 20:03] · скачан: 111 раз
Статус: √ проверено
Размер: 6.11 GB
Как cкачать? Как скачать Дом с паранормальными явлениями через торрент | UTorrent

28-11-2019 20:33  

Отключить всю рекламу на сайте

    Дорогой пользователь! Огромная просьба, поблагодарите релизера, оцените раздачу и оставьте свои комментарий, если Вы скачали Дом с паранормальными явлениями через торрент бесплатно! Внесите свою лепту в развитие PiratBit!
    Комментировать посты могут только пользователи прошедшие не сложную регистрацию
    Показать сообщения:    

    Дом с паранормальными явлениями через торрент
    Скачать бесплатно Дом с паранормальными явлениями
    Дом с паранормальными явлениями скачать торрент
    Дом с паранормальными явлениями смотреть онлайн
    Cкачать фильм Дом с паранормальными явлениями бесплатно
    Дом с паранормальными явлениями скачать торрент в хорошем качестве
    Дом с паранормальными явлениями смотреть онлайн бесплатно в хорошем качестве


    Вы не можете начинать темы
    Вы не можете отвечать на сообщения
    Вы не можете редактировать свои сообщения
    Вы не можете удалять свои сообщения
    Вы не можете голосовать в опросах
    Вы не можете прикреплять файлы к сообщениям
    Вы можете скачивать файлы