1 сезон

3 сезон

iTunes

1

Line

MVO

iTunes

13

1 сезон

RePack

30

Deluxe

pack

Лицензия

ВАЖНО

ИГРА 18+

pack

RePack

MK11

RePack

jed

RePack

fifa19

RePack

RDR2

RePack

NEED FOR SPEED™ PAYBACK

4 сезон

9 сезон

Бесстыжие 9 сезон

Все сериалы

все сериалы на PB.wtf

RePack

FAR CRY 5

Anonymous, доброе утро, мы катастрофически не успеваем собрать деньги на оплату серверов, помогите нам пожалуйста 5,10,15р., для нас важна любая помощь . В качестве благодарности мы отключим Вам всю рекламу на сайте (укажите свой ник в строку Ваше имя)!

×
  
Magnet ссылка

Переполох на районе / Les Kaira (Франк Гастамбиде / Franck Gastambide) [2012, комедия, DVD9] R5 pb.wtf

Переполох на районе через торрент pb.wtf

Размер: 6.55 GB | Добавлен: 8 лет 3 мес. назад | Торрент скачан:77 раз
Скачать  

28-04-2013 07:05 Переполох на районе Скачать торрент  


Переполох на районе / Les Kaira
Страна: Франция
Студия: Canal+ [fr], Ciné, Cofimage 23, Gaumont, Mandarin Films, Palatine Étoile 6, Save Ferris Entertainment, Sofica Manon 2
Жанр: комедия
Год выпуска: 2012
Мировая премьера: 10 июля 2012
Российская премьера: 14 марта 2013
Дата выхода DVD: 30 апреля 2013
Продолжительность: 01:33:45
Перевод: Профессиональный (дублированный) [Лицензия]
Cубтитры: нет
Оригинальная аудиодорожка: нет
Режиссер: Франк Гастамбиде / Franck Gastambide
В ролях: Меди Садун, Франк Гастамбиде, Джиб, Алис Белаиди, Пом Клементьефф, Рамзи Бедиа, Хаким Сид, Исмаэль Си Саване, Аннабель Лангронн, Сисси Дюпарк
Описание: Трое непутевых жителей одного из бедных кварталов Парижа попадают в историю и оказываются в должниках у местного авторитете Ворнера. Срочно нужны бабосы и друзья решают сняться в порнофильме. Лучше бы они этого не делали! Умопомрачительная комедия!
Бонусы: нет

Релиз группы:
Качество: DVD9 R5
Формат: DVD-Video
Видео кодек: MPEG2
Аудио кодек: AC3
Видео: PAL 16:9 (720x576(0.900)) MPEG Video, 25,000 кадр/сек, 9332 Кбит/сек
Аудио: Russian (Dolby AC3, 6 ch) 448 Кбит/сек, 48,0 КГц



Title: Perepoloh.na.rajone.2012.DVD9
Size: 6.55 Gb ( 6 866 536,00 KBytes ) - DVD-9
Enabled regions: 1, 2, 3, 4, 5, 6, 7, 8

VTS_01 :
Play Length: 01:33:45
Video: PAL 16:9 (720x576) VBR, Auto Letterboxed
Audio:
Russian (Dolby AC3, 6 ch)

* Menus Information *

VIDEO_TS Menu
Video:
PAL 16:9 (720x576) VBR
Auto Letterboxed
Audio:
Not specified (Dolby AC3, 2 ch)
Russian Language Unit :
Title Menu

VTS_01 Menu
Video:
PAL 16:9 (720x576) VBR
Auto Letterboxed
Audio:
Not specified (Dolby AC3, 2 ch)
Russian Language Unit :
Root Menu
Общее
Полное имя : M:Новинки 2013Perepoloh.na.rajone.2012.DVD9VIDEO_TSVTS_01_1.VOB
Формат : MPEG-PS
Размер файла : 1024 Мбайт
Продолжительность : 14 м.
Общий поток : 9978 Кбит/сек

Видео
Идентификатор : 224 (0xE0)
Формат : MPEG Video
Версия формата : Version 2
Профиль формата : Main@Main
Параметр BVOP формата : Да
Параметр матрицы формата : Выборочная
Параметр GOP формата : Variable
Продолжительность : 14 м.
Битрейт : 9332 Кбит/сек
Максимальный битрейт : 9000 Кбит/сек
Ширина : 720 пикселей
Высота : 576 пикселей
Соотношение сторон : 16:9
Частота кадров : 25,000 кадров/сек
Стандарт вещания : PAL
Цветовое пространство : YUV
Субдискретизация насыщенности : 4:2:0
Битовая глубина : 8 бит
Тип развёртки : Чересстрочная
Порядок развёртки : Верхнее поле первое
Метод сжатия : С потерями
Бит/(Пиксели*Кадры) : 0.900
Размер потока : 958 Мбайт (94%)

Аудио
Идентификатор : 189 (0xBD)-128 (0x80)
Формат : AC-3
Формат/Информация : Audio Coding 3
Расширение режима : CM (complete main)
Параметр Endianness формата : Big
Режим смешивания : DVD-Video
Продолжительность : 14 м.
Вид битрейта : Постоянный
Битрейт : 448 Кбит/сек
Каналы : 6 каналов
Расположение каналов : Front: L C R, Side: L R, LFE
Частота : 48,0 КГц
Битовая глубина : 16 бит
Метод сжатия : С потерями
Размер потока : 46,0 Мбайт (4%)










pb.wtf



Скачать Переполох на районе через торрент http://s017.radikal.ru/i431/1304/08/52d2ebac5c51.jpg Скачать фильм Переполох на районе через торрент бесплантно в хорошем качестве Описание: Трое непутевых жителей одного из бедных кварталов Парижа попадают в историю и оказываются в должниках у местного авторитете ... 10 10 9
Info! Золотая раздача, скачанное не засчитывается.
Торрент: Зарегистрирован [2013-04-28 07:05] · скачан: 77 раз
Статус: √ проверено
Размер: 6.55 GB
Как cкачать? Как скачать Переполох на районе через торрент | UTorrent

28-11-2019 20:33  

Отключить всю рекламу на сайте

    Дорогой пользователь! Огромная просьба, поблагодарите релизера, оцените раздачу и оставьте свои комментарий, если Вы скачали Переполох на районе через торрент бесплатно! Внесите свою лепту в развитие PiratBit!
    Комментировать посты могут только пользователи прошедшие не сложную регистрацию
    Показать сообщения:    

    Переполох на районе через торрент
    Скачать бесплатно Переполох на районе
    Переполох на районе скачать торрент
    Переполох на районе смотреть онлайн
    Cкачать фильм Переполох на районе бесплатно
    Переполох на районе скачать торрент в хорошем качестве
    Переполох на районе смотреть онлайн бесплатно в хорошем качестве


    Вы не можете начинать темы
    Вы не можете отвечать на сообщения
    Вы не можете редактировать свои сообщения
    Вы не можете удалять свои сообщения
    Вы не можете голосовать в опросах
    Вы не можете прикреплять файлы к сообщениям
    Вы можете скачивать файлы