2 сезон

iTunes

MVO

1

2 сезон

iTunes

iTunes

1 сезон

RePack

30

Новинка

ВАЖНО

ИГРА 18+

pack

RePack

MK11
pack

Легкие деньги

RePack

jed

RePack

fifa19

RePack

RDR2

RePack

NEED FOR SPEED™ PAYBACK

4 сезон

9 сезон

Бесстыжие 9 сезон

Все сериалы

все сериалы на PB.wtf

RePack

FAR CRY 5

Anonymous, доброе утро, мы не успеваем собрать деньги на оплату серверов за декабрь и январь, помогите нам пожалуйста в это трудное время. В качестве благодарности мы отключим Вам всю рекламу на сайте (укажите свой ник в строку Ваше имя)!

×
  
Magnet ссылка

Большие Черные Члены / Massive Black Cocks [2012 г., эротика, SiteRip] pb.wtf

Большие Черные Члены через торрент pb.wtf

Размер: 13 MB | Добавлен: 7 лет 8 мес. назад | Торрент скачан:188 раз
Скачать  

28-04-2013 07:05 Большие Черные Члены Скачать торрент  

Большие Черные Члены / Massive Black Cocks
Год выпуска: 2012
Страна: США
Жанр: эротика
Студия: xnxx.com/insanefulvid.net
Продолжительность: 4мин

Качество: SiteRip
Формат: FLV
Видео кодек: Flash
Аудио кодек: MP3
Видео: 396 Кбит/сек 528 х 400 пикселей 25,000 кадров/сек
Аудио: 64,0 Кбит/сек 2 канала 22,05 КГц
скриншот   скриншот   скриншот   скриншот   скриншот  

Общее
Формат : Flash Video
Размер файла : 13,4 Мбайт
Продолжительность : 4 м. 1 с.
Общий поток : 467 Кбит/сек
Дата пометки : UTC 2010-07-09 07:36:06
Пометившая программа : inlet media FLVTool2 v1.0.6 - http://www.inlet-media.de/flvtool2

Видео
Формат : VP6
Идентификатор кодека : 4
Продолжительность : 4 м. 0 с.
Битрейт : 396 Кбит/сек
Ширина : 528 пикселей
Высота : 400 пикселей
Соотношение сторон : 4:3
Режим частоты кадров : Постоянный
Частота кадров : 25,000 кадров/сек
Битовая глубина : 8 бит
Бит/(Пиксели*Кадры) : 0.075
Размер потока : 11,4 Мбайт (85%)

Аудио
Формат : MPEG Audio
Версия формата : Version 2
Профиль формата : Layer 3
Режим : Joint stereo
Расширение режима : MS Stereo
Идентификатор кодека : 2
Идентификатор кодека/Подсказка : MP3
Продолжительность : 4 м. 1 с.
Вид битрейта : Постоянный
Битрейт : 64,0 Кбит/сек
Каналы : 2 канала
Частота : 22,05 КГц
Метод сжатия : С потерями
Размер потока : 1,95 Мбайт (14%)
Библиотека кодирования : LAME3.98.2

pb.wtf



pack Скачать Большие Черные Члены через торрент http://pic.kartinco.top/images/2/eqnhoxlvu8.png Скачать фильм Большие Черные Члены через торрент бесплантно в хорошем качестве Год выпуска: 2012Страна: СШАЖанр: эротикаСтудия: xnxx.com/insanefulvid.netПродолжительность: ... 8.8 10 8
Info! Золотая раздача, скачанное не засчитывается.
Торрент: Зарегистрирован [2013-04-28 07:05] · скачан: 188 раз
Статус: √ проверено
Размер: 13 MB
Как cкачать? Как скачать Большие Черные Члены через торрент | UTorrent

28-11-2019 20:33  

Отключить всю рекламу на сайте

    Дорогой пользователь! Огромная просьба, поблагодарите релизера, оцените раздачу и оставьте свои комментарий, если Вы скачали Большие Черные Члены через торрент бесплатно! Внесите свою лепту в развитие PiratBit!
    Комментировать посты могут только пользователи прошедшие не сложную регистрацию
    Показать сообщения:    

    Большие Черные Члены через торрент
    Скачать бесплатно Большие Черные Члены
    Большие Черные Члены скачать торрент
    Большие Черные Члены смотреть онлайн
    Cкачать фильм Большие Черные Члены бесплатно
    Большие Черные Члены скачать торрент в хорошем качестве
    Большие Черные Члены смотреть онлайн бесплатно в хорошем качестве


    Вы не можете начинать темы
    Вы не можете отвечать на сообщения
    Вы не можете редактировать свои сообщения
    Вы не можете удалять свои сообщения
    Вы не можете голосовать в опросах
    Вы не можете прикреплять файлы к сообщениям
    Вы можете скачивать файлы