Ссылка на приватное зеркало нашего сайта всего за 1$. Внимание количество ограничено!!!

2 сезон

iTunes

1 сезон

1

iTunes

iTunes

iTunes

1 сезон

RePack

30

ИГРА 18+

pack

ВАЖНО

!!Акция!!

Alien_RageХит недели

RePack

MK11
pack

Забери бонус

RePack

jed

!!Акция!!

Alien_Rage

RePack

fifa19

RePack

Assassins Creed: Odyssey

RePack

NEED FOR SPEED™ PAYBACK

4 сезон

9 сезон

Бесстыжие 9 сезон

Все сериалы

все сериалы на PB.wtf

RePack

FAR CRY 5
  

Джанго освобожденный / Django Unchained (Квентин Тарантино) [2012 г., Драма, комедия, приключения, вестерн, BDRip 720p, Дубляж + Оригинал+A+Одноголосый] pb.wtf

Джанго освобожденный через торрент pb.wtf

Размер: 8.66 GB | Добавлен: 7 лет 5 мес. назад | Торрент скачан:429 раз
Скачать  

28-04-2013 07:49 Джанго освобожденный Скачать торрент  

Джанго освобожденный / Django Unchained«Они забрали его свободу. Он заберёт у них всё.»
Год выпуска: 2012
Страна: США, Brown 26 Productions, Columbia Pictures, Double Feature Films, Super Cool Man Shoe Too, Super Cool ManChu, The Weinstein Company LLC
Жанр: Драма, комедия, приключения, вестерн,
Продолжительность: 02:45:22
Перевод: Дубляж + Оригинал+A+Одноголосый
Субтитры: UTF-8 Русские, UTF-8 Английские

Режиссер: Квентин Тарантино

В ролях: Джейми Фокс, Кристоф Вальц, Леонардо ДиКаприо, Керри Вашингтон, Сэмюэл Л. Джексон, Джона Хилл, Эмбер Тэмблин, Уолтон Гоггинс, Джеймс Ремар, Дон Джонсон, Зои Белл, Роберт Кэрредин, Брюс Дерн, Майкл Паркс, Джеймс Руссо, Том Савини, Гэри Граббс, Франко Неро, Тодд Аллен, М. К. Гейни, Майкл Боуэн, Деннис Кристофер, Том Вопат, Рекс Линн, Майкл Бэколл, Льюис Смит, Нед Беллами, Дж.Д. Эвермор, Джон Джэррэт, Лаура Кайот, Джаррод Банч, Джамал Дафф, Джеймс Паркс, Николь Робинсон, Эдрик Браун, Эван Парк, Мисти Апхэм, Эрин Пикетт,

Описание: Эксцентричный охотник за головами, также известный как «Дантист», промышляет отстрелом самых опасных преступников на Диком Западе. Работенка пыльная, и без надежного помощника ему не обойтись. Но как найти такого и желательно не очень дорогого? Беглый раб по имени Джанго — прекрасная кандидатура. Правда, у нового помощника свои мотивы — кое с чем надо разобраться…

Качество: BDRip 720p
Формат: MKV
Видео кодек: AVC
Аудио кодек: AC3
Видео: MPEG-4 AVC/H264/x264 High@L4.1 5116 Кбит/сек 1280*534 23,976 кадра/сек
Аудио#1: AC-3. 6 каналов 448 Кбит/сек Дубляж 48 kHz
Аудио#2: AC-3. 6 каналов 448 Кбит/сек Авторский одноголосый (Дольский). 48 kHz
Аудио#3: AC-3 6 каналов 448 Кбит/сек Одноголосый (Zames) 48 kHz
Аудио#4: AC-3 6 каналов 448 Кбит/сек Английский 48 kHz
Релиз от:
General
Unique ID : 192247248815361585684868413990857823363 (0x90A1792BA0B51ED6864755AC0EDF5483)
Complete name : C:Загрузки с инетаDjango.Unchained.BDRip.720p.Eng.4Rus.mkv
Format : Matroska
Format version : Version 4 / Version 2
File size : 8.66 GiB
Duration : 2h 45mn
Overall bit rate : 7 496 Kbps
Encoded date : UTC 2013-04-27 14:48:22
Writing application : mkvmerge v6.1.0 ('Old Devil') built on Mar 2 2013 14:32:37
Writing library : libebml v1.3.0 + libmatroska v1.4.0

Video
ID : 1
Format : AVC
Format/Info : Advanced Video Codec
Format profile : High@L4.1
Format settings, CABAC : Yes
Format settings, ReFrames : 9 frames
Codec ID : V_MPEG4/ISO/AVC
Duration : 2h 45mn
Bit rate : 5 107 Kbps
Width : 1 280 pixels
Height : 534 pixels
Display aspect ratio : 2.40:1
Frame rate mode : Constant
Frame rate : 23.976 fps
Color space : YUV
Chroma subsampling : 4:2:0
Bit depth : 8 bits
Scan type : Progressive
Bits/(Pixel*Frame) : 0.312
Stream size : 5.90 GiB (68%)
Title : BDRip 1280 x 534 (sdv_f)
Writing library : x264 core 130 r2273 b3065e6
Encoding settings : cabac=1 / ref=9 / deblock=1:-3:-3 / analyse=0x3:0x113 / me=tesa / subme=10 / psy=1 / psy_rd=1.00:0.03 / mixed_ref=1 / me_range=24 / chroma_me=1 / trellis=2 / 8x8dct=1 / cqm=0 / deadzone=21,11 / fast_pskip=0 / chroma_qp_offset=-3 / threads=6 / lookahead_threads=1 / sliced_threads=0 / nr=0 / decimate=0 / interlaced=0 / bluray_compat=0 / constrained_intra=0 / bframes=10 / b_pyramid=2 / b_adapt=2 / b_bias=0 / direct=1 / weightb=1 / open_gop=0 / weightp=2 / keyint=250 / keyint_min=23 / scenecut=40 / intra_refresh=0 / rc_lookahead=60 / rc=crf / mbtree=0 / crf=16.5 / qcomp=0.60 / qpmin=0 / qpmax=69 / qpstep=4 / vbv_maxrate=31000 / vbv_bufsize=35000 / crf_max=0.0 / nal_hrd=none / ip_ratio=1.40 / pb_ratio=1.30 / aq=1:1.10
Language : English
Default : Yes
Forced : No

Audio #1
ID : 2
Format : AC-3
Format/Info : Audio Coding 3
Mode extension : CM (complete main)
Format settings, Endianness : Big
Codec ID : A_AC3
Duration : 2h 45mn
Bit rate mode : Constant
Bit rate : 448 Kbps
Channel(s) : 6 channels
Channel positions : Front: L C R, Side: L R, LFE
Sampling rate : 48.0 KHz
Bit depth : 16 bits
Compression mode : Lossy
Stream size : 530 MiB (6%)
Title : Дубляж (Лицензия)
Language : Russian
Default : Yes
Forced : No

Audio #2
ID : 3
Format : AC-3
Format/Info : Audio Coding 3
Mode extension : CM (complete main)
Format settings, Endianness : Big
Codec ID : A_AC3
Duration : 2h 45mn
Bit rate mode : Constant
Bit rate : 448 Kbps
Channel(s) : 6 channels
Channel positions : Front: L C R, Side: L R, LFE
Sampling rate : 48.0 KHz
Bit depth : 16 bits
Compression mode : Lossy
Stream size : 530 MiB (6%)
Title : Авторский одноголосый (Дольский)
Language : Russian
Default : No
Forced : No

Audio #3
ID : 4
Format : AC-3
Format/Info : Audio Coding 3
Mode extension : CM (complete main)
Format settings, Endianness : Big
Codec ID : A_AC3
Duration : 2h 45mn
Bit rate mode : Constant
Bit rate : 448 Kbps
Channel(s) : 6 channels
Channel positions : Front: L C R, Side: L R, LFE
Sampling rate : 48.0 KHz
Bit depth : 16 bits
Compression mode : Lossy
Stream size : 530 MiB (6%)
Title : Одноголосый (Zames)
Language : Russian
Default : No
Forced : No

Audio #4
ID : 5
Format : AC-3
Format/Info : Audio Coding 3
Mode extension : CM (complete main)
Format settings, Endianness : Big
Codec ID : A_AC3
Duration : 2h 45mn
Bit rate mode : Constant
Bit rate : 448 Kbps
Channel(s) : 6 channels
Channel positions : Front: L C R, Side: L R, LFE
Sampling rate : 48.0 KHz
Bit depth : 16 bits
Compression mode : Lossy
Stream size : 530 MiB (6%)
Title : Одноголосый (Lord666)
Language : Russian
Default : No
Forced : No

Audio #5
ID : 6
Format : AC-3
Format/Info : Audio Coding 3
Mode extension : CM (complete main)
Format settings, Endianness : Big
Codec ID : A_AC3
Duration : 2h 45mn
Bit rate mode : Constant
Bit rate : 448 Kbps
Channel(s) : 6 channels
Channel positions : Front: L C R, Side: L R, LFE
Sampling rate : 48.0 KHz
Bit depth : 16 bits
Compression mode : Lossy
Stream size : 530 MiB (6%)
Title : Английский
Language : English
Default : No
Forced : No

Text #1
ID : 7
Format : UTF-8
Codec ID : S_TEXT/UTF8
Codec ID/Info : UTF-8 Plain Text
Title : Русские (gorsky)
Language : Russian
Default : No
Forced : No

Text #2
ID : 8
Format : UTF-8
Codec ID : S_TEXT/UTF8
Codec ID/Info : UTF-8 Plain Text
Title : Английские полные
Language : English
Default : No
Forced : No

Menu
00:00:00.000 : :00:00:00.000
00:03:36.466 : :00:03:36.466
00:12:47.934 : :00:12:47.934
00:18:49.420 : :00:18:49.420
00:26:48.273 : :00:26:48.273
00:31:44.528 : :00:31:44.528
00:40:27.133 : :00:40:27.133
00:46:05.513 : :00:46:05.513
00:52:36.862 : :00:52:36.862
00:58:12.823 : :00:58:12.823
01:02:20.320 : :01:02:20.320
01:12:13.496 : :01:12:13.496
01:18:35.794 : :01:18:35.794
01:26:08.038 : :01:26:08.038
01:34:49.642 : :01:34:49.642
01:40:52.380 : :01:40:52.380
01:45:34.036 : :01:45:34.036
01:50:01.094 : :01:50:01.094
01:55:03.980 : :01:55:03.980
02:03:54.969 : :02:03:54.969
02:08:14.103 : :02:08:14.103
02:14:14.380 : :02:14:14.380
02:17:28.991 : :02:17:28.991
02:22:32.544 : :02:22:32.544
02:26:28.530 : :02:26:28.530
02:33:00.463 : :02:33:00.463
02:35:41.999 : :02:35:41.999
02:41:30.931 : :02:41:30.931

pb.wtf



Скачать Джанго освобожденный через торрент http://i47.fastpic.ru/big/2013/0427/6e/c239ad3a138a6d0f0fc7c7dbf605e76e.png Скачать фильм Джанго освобожденный через торрент бесплантно в хорошем качестве Описание: Эксцентричный охотник за головами, также известный как «Дантист», промышляет отстрелом самых опасных преступников на Диком ... 8.9 10 19
Info! Золотая раздача, скачанное не засчитывается.
Торрент: Зарегистрирован [2013-04-28 07:49] · скачан: 429 раз
Статус: √ проверено
Размер: 8.66 GB
Как cкачать? Как скачать Джанго освобожденный через торрент | qTorrent

% Раздел Тема Автор DL S | L
Фильмы (BDRip, HDrip-AVC) (48-60 fps) [ 3.95 GB ] Джанго освобожденный / Django Unchained [2012 BDRip-AVC 60fps Dub] от R.G. HD-Films Tiberiumsun69 Скачать
28 | 0
Фильмы [HD 720p, 1080p] (Хороший звук DUB, MVO) [ 10.97 GB ] Джанго освобожденный / Django Unchained [2012 BDRip-HEVC 1080p ] DUB [] bober100 Скачать
1 | 0
Фильмы (HD 720p, 1080p) (48-60 fps) [ 5.38 GB ] Джанго освобожденный / Django Unchained [2012 BDRip - HEVC 1080p 10bit 60 FPS ] dd2d3 Скачать
3 | 0
Фильмы с авторской озвучкой [ 4.19 GB ] Джанго освобожденный / Django Unchained [2012 HDRip] 5x[AVO] killermax2013 Скачать
1 | 0
Фильмы 2012 [ 1.46 GB ] Джанго освобожденный / Django Unchained [2012 HDRip лицензия] Seedtank Скачать
1 | 1
Фильмы с авторской озвучкой [ 2.18 GB ] Джанго освобожденный / Django Unchained [2012 BDRip] [AVO] killermax2013 Скачать
2 | 0
Фильмы (Blu-ray, BD-Remux, HDDVD) [ 102.08 GB ] Джанго освобожденный / Django Unchained [2012 BDRemux] [1080p]+7x[AVO]+8x[VO] + [Sub ruseng] killermax2013 Скачать
1 | 0

28-11-2019 20:33  

Отключить всю рекламу на сайте

28-04-2013 10:01 Джанго освобожденный Скачать торрент  

лучше бы вместо озвучки Дольского прикрутили Сербина,цены бы вам не было тогдаpb.wtf



28-04-2013 10:30 Джанго освобожденный Скачать торрент  

Будет такое же качество но уже с авторскими дорогами ждите pb.wtf



28-04-2013 10:33 Джанго освобожденный Скачать торрент  

Trava-HD писал(а):

Будет такое же качество но уже с авторскими дорогами ждите

разве их много есть ? вроде только двое: Дольский и Сербин озвучивали Озвучка от Дольского не понравилась с первых минут,а вот Сербин отлично озвучил pb.wtf



28-04-2013 10:49 Джанго освобожденный Скачать торрент  

killermax2013 писал(а):

Trava-HD писал(а):

Будет такое же качество но уже с авторскими дорогами ждите

разве их много есть ? вроде только двое: Дольский и Сербин озвучивали Озвучка от Дольского не понравилась с первых минут,а вот Сербин отлично озвучил

Аудио #2: Русский (AC3, 6 ch, 448 Кбит/с) / Авторский одноголосый (Юрий Сербин)
Аудио #3: Русский (AC3, 6 ch, 448 Кбит/с) / Авторский одноголосый (Юрий Живов)
Аудио #4: Русский (AC3, 6 ch, 448 Кбит/с) / Авторский одноголосый (Александр Дасевич)
Аудио #5: Русский (AC3, 6 ch, 448 Кбит/с) / Авторский одноголосый (Андрей Дольски
йpb.wtf



28-04-2013 10:51 Джанго освобожденный Скачать торрент  

Trava-HD писал(а):

killermax2013 писал(а):

Trava-HD писал(а):

Будет такое же качество но уже с авторскими дорогами ждите

разве их много есть ? вроде только двое: Дольский и Сербин озвучивали Озвучка от Дольского не понравилась с первых минут,а вот Сербин отлично озвучил

Аудио #2: Русский (AC3, 6 ch, 448 Кбит/с) / Авторский одноголосый (Юрий Сербин)
Аудио #3: Русский (AC3, 6 ch, 448 Кбит/с) / Авторский одноголосый (Юрий Живов)
Аудио #4: Русский (AC3, 6 ch, 448 Кбит/с) / Авторский одноголосый (Александр Дасевич)
Аудио #5: Русский (AC3, 6 ch, 448 Кбит/с) / Авторский одноголосый (Андрей Дольски
й

За рип с дорожками
Аудио #2: Русский (AC3, 6 ch, 448 Кбит/с) / Авторский одноголосый (Юрий Сербин)
Аудио #3: Русский (AC3, 6 ch, 448 Кбит/с) / Авторский одноголосый (Юрий Живов)
был бы признателен остальные озвучки не интересныpb.wtf



23-12-2013 13:50 Джанго освобожденный Скачать торрент  

дайте скорости плизpb.wtf



    Дорогой пользователь! Огромная просьба, поблагодарите релизера, оцените раздачу и оставьте свои комментарий, если Вы скачали Джанго освобожденный через торрент бесплатно! Внесите свою лепту в развитие PiratBit!
    Комментировать посты могут только пользователи прошедшие не сложную регистрацию
    Показать сообщения:    

    Джанго освобожденный через торрент
    Скачать бесплатно Джанго освобожденный
    Джанго освобожденный скачать торрент
    Джанго освобожденный смотреть онлайн
    Cкачать фильм Джанго освобожденный бесплатно
    Джанго освобожденный скачать торрент в хорошем качестве
    Джанго освобожденный смотреть онлайн бесплатно в хорошем качестве


    Вы не можете начинать темы
    Вы не можете отвечать на сообщения
    Вы не можете редактировать свои сообщения
    Вы не можете удалять свои сообщения
    Вы не можете голосовать в опросах
    Вы не можете прикреплять файлы к сообщениям
    Вы можете скачивать файлы