Ссылка на приватное зеркало нашего сайта всего за 1$. Внимание количество ограничено!!!

2 сезон

iTunes

1 сезон

1

iTunes

iTunes

iTunes

1 сезон

RePack

30

ИГРА 18+

pack

ВАЖНО

!!Акция!!

Alien_RageХит недели

RePack

MK11
pack

Забери бонус

RePack

jed

!!Акция!!

Alien_Rage

RePack

fifa19

RePack

Assassins Creed: Odyssey

RePack

NEED FOR SPEED™ PAYBACK

4 сезон

9 сезон

Бесстыжие 9 сезон

Все сериалы

все сериалы на PB.wtf

RePack

FAR CRY 5
  

Коротышка / Fun Size (Джош Шварц) [2012 г., комедия, BDRip 720p, Дубляж, лицензия] pb.wtf

Коротышка через торрент pb.wtf

Размер: 4.31 GB | Добавлен: 7 лет 5 мес. назад | Торрент скачан:48 раз
Скачать  

28-04-2013 10:14 Коротышка Скачать торрент  

Коротышка / Fun Size

«Some people just can't handle halloween»

Год выпуска: 2012
Страна: США
Жанр: комедия
Продолжительность: 01:26:23
Перевод: Дубляж, Лицензия
Тип релиза: Лицензия
Субтитры: Нет

Режиссер: Джош Шварц
Продюссер: Бард Доррос, Дэвид Кантер, Стефани Сэвадж
Сценарий: Макс Вернер

Бюджет: 14 000 000
Премьера в мире: 25 октября 2012



Мировой рейтинг IMDB 5.00 (3 727)


В ролях: Виктория Джастис, Томас Манн, Челси Хэндлер, Джексон Николл, Джошуа Пенс, Джейн Леви, Томас МакДонелл, Кэрри Клиффорд, Бэрри Ливингстон, Эли Бардха,

Описание: Фильм, который укладывается в одну ночь, расскажет историю девушки-подростка, которая теряет своего маленького братика на Хэллоуин. Звезда школьной команды политических дебатов, в которого будет влюблена героиня, поможет ей в поисках брата.

Качество: BDRip 720p
Формат: MKV
Видео кодек: H.264
Аудио кодек: AC3
Видео: 1280x544 (2.35:1), 23.976 fps, 6 055 Kbps (0.363 bit/pixel)
Аудио#1: AC-3, 48.0 KHz, 6 ch, 448 Kbps, CBR (Russian)
Аудио#2: AC-3, 48.0 KHz, 6 ch, 640 Kbps, CBR (French)








Общее
Уникальный идентификатор : 203804980290739657314429100207268074662 (0x99536953D9EBC3158A2E3254AF8A94A6)
Полное имя : F:Коротышка.2012.x264.BDRip.mkv
Формат : Matroska
Версия формата : Version 2
Размер файла : 4,31 Гбайт
Продолжительность : 1 ч. 26 м.
Общий поток : 7142 Кбит/сек
Название фильма : Коротышка.2012.BDRip.rip
Дата кодирования : UTC 2013-04-27 17:26:34
Программа кодирования : mkvmerge v5.0.1 ('Es ist Sommer') built on Oct 9 2011 11:55:43
Библиотека кодирования : libebml v1.2.2 + libmatroska v1.3.0

Видео
Идентификатор : 1
Формат : AVC
Формат/Информация : Advanced Video Codec
Профиль формата : High@L4.1
Параметр CABAC формата : Да
Параметр ReFrames формата : 12 кадров
Режим смешивания : Header stripping
Идентификатор кодека : V_MPEG4/ISO/AVC
Продолжительность : 1 ч. 26 м.
Битрейт : 6055 Кбит/сек
Ширина : 1280 пикселей
Высота : 544 пикселя
Соотношение сторон : 2,35:1
Режим частоты кадров : Постоянный
Частота кадров : 23,976 кадра/сек
Цветовое пространство : YUV
Субдискретизация насыщенности : 4:2:0
Битовая глубина : 8 бит
Тип развёртки : Прогрессивная
Бит/(Пиксели*Кадры) : 0.363
Размер потока : 3,57 Гбайт (83%)
Библиотека кодирования : x264 core 129
Настройки программы : cabac=1 / ref=12 / deblock=1:-3:-3 / analyse=0x3:0 / me=umh / subme=11 / psy=1 / psy_rd=1,00:0,00 / mixed_ref=1 / me_range=64 / chroma_me=1 / trellis=2 / 8x8dct=1 / cqm=0 / deadzone=21,11 / fast_pskip=0 / chroma_qp_offset=-2 / threads=18 / lookahead_threads=3 / sliced_threads=0 / nr=0 / decimate=1 / interlaced=0 / bluray_compat=0 / constrained_intra=0 / bframes=5 / b_pyramid=2 / b_adapt=2 / b_bias=0 / direct=3 / weightb=1 / open_gop=0 / weightp=2 / keyint=240 / keyint_min=24 / scenecut=40 / intra_refresh=0 / rc_lookahead=120 / rc=2pass / mbtree=1 / bitrate=6055 / ratetol=1,0 / qcomp=0,60 / qpmin=4 / qpmax=69 / qpstep=4 / cplxblur=20,0 / qblur=0,5 / ip_ratio=1,40 / aq=1:1,00
Default : Да
Forced : Нет
Основные цвета : BT.709
Характеристики трансфера : BT.709
Коэффициенты матрицы : BT.709

Аудио #1
Идентификатор : 2
Формат : AC-3
Формат/Информация : Audio Coding 3
Расширение режима : CM (complete main)
Параметр Endianness формата : Big
Режим смешивания : Header stripping
Идентификатор кодека : A_AC3
Продолжительность : 1 ч. 26 м.
Вид битрейта : Постоянный
Битрейт : 448 Кбит/сек
Каналы : 6 каналов
Расположение каналов : Front: L C R, Side: L R, LFE
Частота : 48,0 КГц
Битовая глубина : 16 бит
Метод сжатия : С потерями
Размер потока : 277 Мбайт (6%)
Заголовок : Russian
Язык : Russian
Default : Нет
Forced : Нет

Аудио #2
Идентификатор : 3
Формат : AC-3
Формат/Информация : Audio Coding 3
Расширение режима : CM (complete main)
Параметр Endianness формата : Big
Режим смешивания : Header stripping
Идентификатор кодека : A_AC3
Продолжительность : 1 ч. 26 м.
Вид битрейта : Постоянный
Битрейт : 640 Кбит/сек
Каналы : 6 каналов
Расположение каналов : Front: L C R, Side: L R, LFE
Частота : 48,0 КГц
Битовая глубина : 16 бит
Метод сжатия : С потерями
Размер потока : 395 Мбайт (9%)
Заголовок : French
Язык : French
Default : Да
Forced : Нет


Коротышка скачать торрент






pb.wtf



Скачать Коротышка через торрент http://pic.kartinco.top/images/2/52aqqk3cwh.png Скачать фильм Коротышка через торрент бесплантно в хорошем качестве Описание: Фильм, который укладывается в одну ночь, расскажет историю девушки-подростка, которая теряет своего маленького братика на ... 8.2 10 5
Info! Золотая раздача, скачанное не засчитывается.
Торрент: Зарегистрирован [2013-04-28 10:14] · скачан: 48 раз
Статус: √ проверено
Размер: 4.31 GB
Как cкачать? Как скачать Коротышка через торрент | qTorrent

% Раздел Тема Автор DL S | L
Фильмы 2012 [ 1.37 GB ] Коротышка / Fun Size [2012 HDRip лицензия] Ворон Скачать
1 | 0
Фильмы (DVD фильмы) [ 4.6 GB ] Коротышка / Смешной размер / Fun Size [2012 DVD9] R5 voovaz Скачать
1 | 0

28-11-2019 20:33  

Отключить всю рекламу на сайте

28-04-2013 11:37 Коротышка Скачать торрент  

очередной американский сортирный блеваш? или стоит посмотреть?pb.wtf



28-04-2013 11:37 Коротышка Скачать торрент  

pb.wtf





Последний раз редактировалось: Jorgenbl4 (2013-04-28 11:38), всего редактировалось 1 раз
    Дорогой пользователь! Огромная просьба, поблагодарите релизера, оцените раздачу и оставьте свои комментарий, если Вы скачали Коротышка через торрент бесплатно! Внесите свою лепту в развитие PiratBit!
    Комментировать посты могут только пользователи прошедшие не сложную регистрацию
    Показать сообщения:    

    Коротышка через торрент
    Скачать бесплатно Коротышка
    Коротышка скачать торрент
    Коротышка смотреть онлайн
    Cкачать фильм Коротышка бесплатно
    Коротышка скачать торрент в хорошем качестве
    Коротышка смотреть онлайн бесплатно в хорошем качестве


    Вы не можете начинать темы
    Вы не можете отвечать на сообщения
    Вы не можете редактировать свои сообщения
    Вы не можете удалять свои сообщения
    Вы не можете голосовать в опросах
    Вы не можете прикреплять файлы к сообщениям
    Вы можете скачивать файлы