Ссылка на приватное зеркало нашего сайта всего за 1$. Внимание количество ограничено!!!

2 сезон

iTunes

1 сезон

1

iTunes

iTunes

iTunes

1 сезон

RePack

30

ИГРА 18+

pack

ВАЖНО

!!Акция!!

Alien_RageХит недели

RePack

MK11
pack

Забери бонус

RePack

jed

!!Акция!!

Alien_Rage

RePack

fifa19

RePack

Assassins Creed: Odyssey

RePack

NEED FOR SPEED™ PAYBACK

4 сезон

9 сезон

Бесстыжие 9 сезон

Все сериалы

все сериалы на PB.wtf

RePack

FAR CRY 5
  

Переполох на районе / Les KaГЇra (Франк Гастамбиде) [2012 г., комедия, BDRip 720p, Дубляж, лицензия] pb.wtf

Переполох на районе через торрент pb.wtf

Размер: 4.67 GB | Добавлен: 7 лет 5 мес. назад | Торрент скачан:167 раз
Скачать  

28-04-2013 11:02 Переполох на районе Скачать торрент  

Переполох на районе / Les KaГЇra

Год выпуска: 2012
Страна: Франция
Жанр: комедия
Продолжительность: 01:35:26
Перевод: Дубляж, Лицензия
Тип релиза: Лицензия
Субтитры: Нет

Режиссер: Франк Гастамбиде
Продюссер: Эрик Альтмайер, Николас Альтмайер, Жан-Шарль Фелли
Сценарий: Франк Гастамбиде

Премьера в мире: 10 июля 2012

Зрителям, достигшим 18 лет
Мировой рейтинг IMDB 5.60 (398)


В ролях: Меди Садун, Франк Гастамбиде, Джиб, Алис Белаиди, Пом Клементьефф, Рамзи Бедиа, Хаким Сид, Исмаэль Си Саване, Аннабель Лангронн, Сисси Дюпарк, Татьяна Шарко, Антон Савенков, Владимир Рыбальченко,

Описание: Трое непутевых жителей одного из бедных кварталов Парижа попадают в историю и оказываются в должниках у местного авторитете Ворнера. Срочно нужны бабосы и друзья решают сняться в порнофильме. Лучше бы они этого не делали! Умопомрачительная комедия!

Качество: BDRip 720p
Формат: MKV
Видео кодек: H.264
Аудио кодек: AC3/DTS
Видео: 1280x544 (2.35:1), 24.000 fps, 4 893 Kbps (0.293 bit/pixel)
Аудио#1: AC-3, 48.0 KHz, 6 ch, 448 Kbps, CBR (Russian)
Аудио#2: DTS, 48.0 KHz, 6 ch, 1 510 Kbps, CBR (French)










Общее
Уникальный идентификатор : 242828802369804937006591764079425850668 (0xB6AF204D9E6D5898B4DC4B29D0FB8D2C)
Полное имя : F:Переполох на районе.2012.BDRip.720p.mkv
Формат : Matroska
Версия формата : Version 2
Размер файла : 4,67 Гбайт
Продолжительность : 1 ч. 37 м.
Общий поток : 6851 Кбит/сек
Название фильма : Переполох на районе
Дата кодирования : UTC 2013-04-27 16:52:41
Программа кодирования : mkvmerge v5.2.0 ('I can't explain') built on Dec 18 2011 18:12:03
Библиотека кодирования : libebml v1.2.3 + libmatroska v1.3.0

Видео
Идентификатор : 1
Формат : AVC
Формат/Информация : Advanced Video Codec
Профиль формата : High@L4.1
Параметр CABAC формата : Да
Параметр ReFrames формата : 5 кадров
Идентификатор кодека : V_MPEG4/ISO/AVC
Продолжительность : 1 ч. 37 м.
Битрейт : 4893 Кбит/сек
Ширина : 1280 пикселей
Высота : 544 пикселя
Соотношение сторон : 2,35:1
Режим частоты кадров : Постоянный
Частота кадров : 24,000 кадра/сек
Цветовое пространство : YUV
Субдискретизация насыщенности : 4:2:0
Битовая глубина : 8 бит
Тип развёртки : Прогрессивная
Бит/(Пиксели*Кадры) : 0.293
Размер потока : 3,25 Гбайт (69%)
Заголовок : Les Kaïra (2012)
Библиотека кодирования : x264 core 128 r2216 198a7ea
Настройки программы : cabac=1 / ref=5 / deblock=1:0:0 / analyse=0x3:0x113 / me=umh / subme=8 / psy=1 / psy_rd=1.00:0.00 / mixed_ref=1 / me_range=16 / chroma_me=1 / trellis=1 / 8x8dct=1 / cqm=0 / deadzone=21,11 / fast_pskip=1 / chroma_qp_offset=-2 / threads=12 / lookahead_threads=2 / sliced_threads=0 / nr=0 / decimate=1 / interlaced=0 / bluray_compat=0 / constrained_intra=0 / bframes=3 / b_pyramid=2 / b_adapt=2 / b_bias=0 / direct=3 / weightb=1 / open_gop=0 / weightp=2 / keyint=240 / keyint_min=24 / scenecut=40 / intra_refresh=0 / rc_lookahead=50 / rc=2pass / mbtree=1 / bitrate=4893 / ratetol=1.0 / qcomp=0.60 / qpmin=0 / qpmax=69 / qpstep=4 / cplxblur=20.0 / qblur=0.5 / ip_ratio=1.40 / aq=1:1.00
Язык : English
Default : Да
Forced : Да

Аудио #1
Идентификатор : 2
Формат : AC-3
Формат/Информация : Audio Coding 3
Расширение режима : CM (complete main)
Параметр Endianness формата : Big
Идентификатор кодека : A_AC3
Продолжительность : 1 ч. 37 м.
Вид битрейта : Постоянный
Битрейт : 448 Кбит/сек
Каналы : 6 каналов
Расположение каналов : Front: L C R, Side: L R, LFE
Частота : 48,0 КГц
Битовая глубина : 16 бит
Метод сжатия : С потерями
Размер потока : 313 Мбайт (7%)
Заголовок : DD 5.1 @ 448 kbps - Dub, R5
Язык : Russian
Default : Да
Forced : Да

Аудио #2
Идентификатор : 3
Формат : DTS
Формат/Информация : Digital Theater Systems
Режим : 16
Параметр Endianness формата : Big
Идентификатор кодека : A_DTS
Продолжительность : 1 ч. 37 м.
Вид битрейта : Постоянный
Битрейт : 1509 Кбит/сек
Каналы : 6 каналов
Расположение каналов : Front: L C R, Side: L R, LFE
Частота : 48,0 КГц
Битовая глубина : 24 бит
Метод сжатия : С потерями
Размер потока : 1,03 Гбайт (22%)
Заголовок : DTS 5.1 @ 1536 kbps
Язык : French
Default : Нет
Forced : Нет

Меню
00:00:00.000 : en:00:00:00.000
00:08:48.375 : en:00:08:48.375
00:14:13.458 : en:00:14:13.458
00:23:49.667 : en:00:23:49.667
00:32:31.167 : en:00:32:31.167
00:38:34.375 : en:00:38:34.375
00:49:53.125 : en:00:49:53.125
00:59:13.167 : en:00:59:13.167
01:09:47.625 : en:01:09:47.625
01:15:57.542 : en:01:15:57.542
01:24:42.708 : en:01:24:42.708
01:33:00.208 : en:01:33:00.208


Переполох на районе скачать торрент






pb.wtf



Скачать Переполох на районе через торрент http://pic.kartinco.top/images/2/econty8lh3.jpg Скачать фильм Переполох на районе через торрент бесплантно в хорошем качестве Описание: Трое непутевых жителей одного из бедных кварталов Парижа попадают в историю и оказываются в должниках у местного авторитете ... 8 10 5
Info! Золотая раздача, скачанное не засчитывается.
Торрент: Зарегистрирован [2013-04-28 11:02] · скачан: 167 раз
Статус: √ проверено
Размер: 4.67 GB
Как cкачать? Как скачать Переполох на районе через торрент | qTorrent

% Раздел Тема Автор DL S | L
Фильмы 2012 [ 1.46 GB ] Переполох на районе / Les KaГЇra [2012 HDRip лицензия] Seedtank Скачать
1 | 0

28-11-2019 20:33  

Отключить всю рекламу на сайте

    Дорогой пользователь! Огромная просьба, поблагодарите релизера, оцените раздачу и оставьте свои комментарий, если Вы скачали Переполох на районе через торрент бесплатно! Внесите свою лепту в развитие PiratBit!
    Комментировать посты могут только пользователи прошедшие не сложную регистрацию
    Показать сообщения:    

    Переполох на районе через торрент
    Скачать бесплатно Переполох на районе
    Переполох на районе скачать торрент
    Переполох на районе смотреть онлайн
    Cкачать фильм Переполох на районе бесплатно
    Переполох на районе скачать торрент в хорошем качестве
    Переполох на районе смотреть онлайн бесплатно в хорошем качестве


    Вы не можете начинать темы
    Вы не можете отвечать на сообщения
    Вы не можете редактировать свои сообщения
    Вы не можете удалять свои сообщения
    Вы не можете голосовать в опросах
    Вы не можете прикреплять файлы к сообщениям
    Вы можете скачивать файлы