Ссылка на приватное зеркало всего за 1$. Внимание количество ограничено!!!

iTunes

iTunes

iTunes

1

iTunes

iTunes

iTunes

iTunes

iTunes

30
pack

Новость дня

ВАЖНО

!!Акция!!

Alien_RageХит недели

RePack

Resident Evil 21

ИГРА 18+

pack

RePack

jed

!!Акция!!

Alien_Rage

RePack

fifa19

RePack

Assassins Creed: Odyssey

RePack

NEED FOR SPEED™ PAYBACK

4 сезон

9 сезон

Бесстыжие 9 сезон

Все сериалы

все сериалы на PB.wtf

RePack

FAR CRY 5
  

3D Hi-Vision Collection 2 3D (part 9) (Студия: Amorz Entertainment.) [2011 г., Dildos/Vibrators, Japanese Review, Beautiful Breast, SexSex, Japanese, Pretty Face, Sexy Leg, Blowjobs, 3D., BDRip 1080p, Оригинал] pb.wtf

3D Hi-Vision Collection 2 3D через торрент pb.wtf

Размер: 597 MB | Добавлен: 7 лет назад | Торрент скачан:1414 раз
Скачать  

28-04-2013 16:28 3D Hi-Vision Collection 2 3D Скачать торрент  

3D Hi-Vision Collection 2 3D (part 9).
Год выпуска: 2011 г.
Страна: Япония.
Жанр: Dildos/Vibrators, Japanese Review, Beautiful Breast, SexSex, Japanese, Pretty Face, Sexy Leg, Blowjobs, 3D.,
Продолжительность: 00:10:46.
Перевод: Оригинал.

Режиссер:
Студия: Amorz Entertainment.

В ролях: Rina Yuuki.

Описание: Помните Rina Yuuki из Tora Tora Gold Vol.49? Встречайте! Впервые в 3D!

Качество: BDRip 1080p.
Формат: MKV.
Видео кодек: H.264.
Аудио кодек: AC3.
Видео: MPEG4 Video (H264), 1920x1080, 23.976fps, 11.2 Mbps.
Аудио: AC-3, 48000Hz, stereo, 192kbps.
Общее
Уникальный идентификатор : 247709835196984739517832168100880354162 (0xBA5B2DCD35D35F2092EF8DB27B368B72)
Полное имя : D:DownloadAdult content!Наработки3D3D Hi-Vision Collection 2 2011Release 9 Rina Yuuki3D Hi-Vision Collection 2 (part 9) 2011 BDRip halfSBS 1080p (IgorekSh).mkv
Формат : Matroska
Версия формата : Version 2
Размер файла : 597 Мбайт
Продолжительность : 10 м.
Режим общего битрейта : Переменный
Общий поток : 7762 Кбит/сек
Название фильма : rip by IgorekSh
Дата кодирования : UTC 2012-12-25 13:15:37
Программа кодирования : mkvmerge v4.2.0 ('No Talking') сборка от Jul 28 2010 18:38:23
Библиотека кодирования : libebml v1.0.0 + libmatroska v1.0.0
Видео
Идентификатор : 1
Формат : AVC
Формат/Информация : Advanced Video Codec
Профиль формата : High@L4.1
Параметр CABAC формата : Да
Параметр ReFrames формата : 1 кадр
Параметр GOP формата : M=1, N=15
Режим смешивания : Header stripping
Идентификатор кодека : V_MPEG4/ISO/AVC
Продолжительность : 10 м.
Вид битрейта : Переменный
Битрейт : 7416 Кбит/сек
Максимальный битрейт : 11,2 Мбит/сек
Ширина : 1920 пикселей
Высота : 1080 пикселей
Соотношение сторон : 16:9
Режим частоты кадров : Постоянный
Частота кадров : 23,976 кадра/сек
Цветовое пространство : YUV
Субдискретизация насыщенности : 4:2:0
Битовая глубина : 8 бит
Тип развёртки : Прогрессивная
Бит/(Пиксели*Кадры) : 0.149
Размер потока : 571 Мбайт (96%)
Заголовок : IgorekSh
Язык : Japanese
Default : Нет
Forced : Нет
Аудио
Идентификатор : 2
Формат : AC-3
Формат/Информация : Audio Coding 3
Расширение режима : CM (complete main)
Параметр Endianness формата : Big
Режим смешивания : Header stripping
Идентификатор кодека : A_AC3
Продолжительность : 10 м.
Вид битрейта : Постоянный
Битрейт : 192 Кбит/сек
Каналы : 2 канала
Расположение каналов : Front: L R
Частота : 48,0 КГц
Битовая глубина : 16 бит
Метод сжатия : С потерями
Размер потока : 14,8 Мбайт (2%)
Заголовок : Original
Язык : Japanese
Default : Нет
Forced : Нет
pb.wtf



pack Скачать 3D Hi-Vision Collection 2 3D через торрент http://i48.fastpic.ru/big/2013/0428/9b/899541909b36a8068034cdd050469c9b.jpg Скачать фильм 3D Hi-Vision Collection 2 3D через торрент бесплантно в хорошем качестве Описание: Помните Rina Yuuki из Tora Tora Gold Vol.49? Встречайте! Впервые в ... 9.5 10 22
Info! Золотая раздача, скачанное не засчитывается.
Торрент: Зарегистрирован [2013-04-28 16:28] · скачан: 1 414 раз
Статус: √ проверено
Размер: 597 MB
Как cкачать? Как скачать 3D Hi-Vision Collection 2 3D через торрент | qTorrent

28-11-2019 20:33  

Отключить всю рекламу на сайте

    Дорогой пользователь! Огромная просьба, поблагодарите релизера, оцените раздачу и оставьте свои комментарий, если Вы скачали 3D Hi-Vision Collection 2 3D через торрент бесплатно! Внесите свою лепту в развитие PiratBit!
    Комментировать посты могут только пользователи прошедшие не сложную регистрацию
    Показать сообщения:    

    3D Hi-Vision Collection 2 3D через торрент
    Скачать бесплатно 3D Hi-Vision Collection 2 3D
    3D Hi-Vision Collection 2 3D скачать торрент
    3D Hi-Vision Collection 2 3D смотреть онлайн
    Cкачать фильм 3D Hi-Vision Collection 2 3D бесплатно
    3D Hi-Vision Collection 2 3D скачать торрент в хорошем качестве
    3D Hi-Vision Collection 2 3D смотреть онлайн бесплатно в хорошем качестве


    Вы не можете начинать темы
    Вы не можете отвечать на сообщения
    Вы не можете редактировать свои сообщения
    Вы не можете удалять свои сообщения
    Вы не можете голосовать в опросах
    Вы не можете прикреплять файлы к сообщениям
    Вы можете скачивать файлы