Ссылка на приватное зеркало нашего сайта всего за 1$. Внимание количество ограничено!!!

2 сезон

iTunes

1 сезон

1

iTunes

iTunes

iTunes

1 сезон

RePack

30

ИГРА 18+

pack

ВАЖНО

!!Акция!!

Alien_RageХит недели

RePack

MK11
pack

Забери бонус

RePack

jed

!!Акция!!

Alien_Rage

RePack

fifa19

RePack

Assassins Creed: Odyssey

RePack

NEED FOR SPEED™ PAYBACK

4 сезон

9 сезон

Бесстыжие 9 сезон

Все сериалы

все сериалы на PB.wtf

RePack

FAR CRY 5
  

Время / In Time (Эндрю Никкол) [2011 г., фантастика, триллер, драма, мелодрама, криминал, BDRip 720p, Дубляж, лицензия] pb.wtf

Время через торрент pb.wtf

Размер: 5.63 GB | Добавлен: 7 лет 5 мес. назад | Торрент скачан:467 раз
Скачать  

29-04-2013 16:16 Время Скачать торрент  

Время / In Time

«Живи вечно или умри, пытаясь»
Год выпуска: 2011
Страна: США
Жанр: фантастика, триллер, драма, мелодрама, криминал,
Продолжительность: 01:49:16
Перевод: Дубляж, Лицензия
Тип релиза: Лицензия

Режиссер: Эндрю Никкол
Продюссер: Марк Абрахам, Эрик Ньюман, Эндрю Никкол
Сценарий: Эндрю Никкол

Бюджет: $40 000 000
Премьера в мире: 30 сентября 2011



Мировой рейтинг IMDB 6.60 (152 566)



В ролях: Джастин Тимберлэйк, Аманда Сайфред, Киллиан Мёрфи, Алекс Петтифер, Винсент Картайзер, Джонни Галэки, Коллинс Пенни, Тоби Хемингуэй, Оливия Уайлд, Шайло Уствальд, Илья Бледный, Татьяна Шитова, Юрий Деркач, Пётр Иващенко, Денис Беспалый,

Описание: Добро пожаловать в мир, где время стало единственной и самой твердой валютой, где люди генетически запрограммированы так, что в 25 лет перестают стареть. Правда, последующие годы стоят денег. И вот богатые становятся практически бессмертными, а бедные, как всегда, обречены сражаться за жизнь.Уилл, бунтарь из гетто, несправедливо обвинен в убийстве с целью грабежа времени и вынужден, захватив заложницу, пуститься в бега. Так, ежеминутно рискуя жизнью, эти двое становятся грозным оружием в борьбе с системой. Но вот вопрос: кто кого? А может быть, в дело вмешается третья сила?..

Качество: BDRip 720p
Формат: MKV
Видео кодек: H.264
Аудио кодек: DTS
Видео: 1280x544 (2.35:1), 23.976 fps, 5 100 Kbps (0.305 bit/pixel)
Аудио#1: DTS, 48.0 KHz, 6 ch, 755 Kbps, CBR (Russian)
Аудио#2: DTS, 48.0 KHz, 6 ch, 1 510 Kbps, CBR (English)
Субтитры: Russian, English








Общее
Уникальный идентификатор : 187013085070522735805603262174323477121 (0x8CB168F93B0278ABBF9A61F2DBCF0A81)
Полное имя : F:Время[2011.BDRip.720p.Dub.Eng.Subs].mkv
Формат : Matroska
Версия формата : Version 2
Размер файла : 5,63 Гбайт
Продолжительность : 1 ч. 49 м.
Общий поток : 7377 Кбит/сек
Название фильма : Время [2011, BDRip/720p]-HDChina
Дата кодирования : UTC 2012-01-19 06:19:27
Программа кодирования : mkvmerge v5.2.0 ('I can't explain') built on Dec 18 2011 18:12:03
Библиотека кодирования : libebml v1.2.3 + libmatroska v1.3.0
Attachment : Yes

Видео
Идентификатор : 1
Формат : AVC
Формат/Информация : Advanced Video Codec
Профиль формата : High@L4.1
Параметр CABAC формата : Да
Параметр ReFrames формата : 12 кадров
Идентификатор кодека : V_MPEG4/ISO/AVC
Продолжительность : 1 ч. 49 м.
Битрейт : 5100 Кбит/сек
Ширина : 1280 пикселей
Высота : 544 пикселя
Соотношение сторон : 2,35:1
Режим частоты кадров : Постоянный
Частота кадров : 23,976 кадра/сек
Цветовое пространство : YUV
Субдискретизация насыщенности : 4:2:0
Битовая глубина : 8 бит
Тип развёртки : Прогрессивная
Бит/(Пиксели*Кадры) : 0.305
Размер потока : 3,78 Гбайт (67%)
Заголовок : Время [2011, BDRip/720p]-HDChina
Библиотека кодирования : x264 core 120 r2145 748fe16
Настройки программы : cabac=1 / ref=12 / deblock=1:-3:-3 / analyse=0x3:0x133 / me=umh / subme=10 / psy=1 / psy_rd=0.90:0.00 / mixed_ref=1 / me_range=48 / chroma_me=1 / trellis=2 / 8x8dct=1 / cqm=0 / deadzone=21,11 / fast_pskip=0 / chroma_qp_offset=-2 / threads=12 / sliced_threads=0 / nr=0 / decimate=0 / interlaced=0 / bluray_compat=0 / constrained_intra=0 / bframes=7 / b_pyramid=2 / b_adapt=2 / b_bias=0 / direct=3 / weightb=1 / open_gop=0 / weightp=2 / keyint=240 / keyint_min=24 / scenecut=40 / intra_refresh=0 / rc=2pass / mbtree=0 / bitrate=5100 / ratetol=1.0 / qcomp=0.70 / qpmin=0 / qpmax=69 / qpstep=4 / cplxblur=20.0 / qblur=0.5 / ip_ratio=1.40 / pb_ratio=1.25 / aq=1:1.10
Язык : English
Default : Да
Forced : Да

Аудио #1
Идентификатор : 2
Формат : DTS
Формат/Информация : Digital Theater Systems
Режим : 16
Параметр Endianness формата : Big
Идентификатор кодека : A_DTS
Продолжительность : 1 ч. 49 м.
Вид битрейта : Постоянный
Битрейт : 768 Кбит/сек
Каналы : 6 каналов
Расположение каналов : Front: L C R, Side: L R, LFE
Частота : 48,0 КГц
Битовая глубина : 24 бит
Метод сжатия : С потерями
Размер потока : 600 Мбайт (10%)
Заголовок : Dub {R5} [DTS 5.1@768kbps/24-bit]
Язык : Russian
Default : Да
Forced : Да

Аудио #2
Идентификатор : 3
Формат : DTS
Формат/Информация : Digital Theater Systems
Режим : 16
Параметр Endianness формата : Big
Идентификатор кодека : A_DTS
Продолжительность : 1 ч. 49 м.
Вид битрейта : Постоянный
Битрейт : 1509 Кбит/сек
Каналы : 6 каналов
Расположение каналов : Front: L C R, Side: L R, LFE
Частота : 48,0 КГц
Битовая глубина : 24 бит
Метод сжатия : С потерями
Размер потока : 1,15 Гбайт (20%)
Заголовок : Original [DTS 5.1@1536kbps/24-bit]
Язык : English
Default : Нет
Forced : Нет

Текст #1
Идентификатор : 4
Формат : UTF-8
Идентификатор кодека : S_TEXT/UTF8
Идентификатор кодека/Информация : UTF-8 Plain Text
Заголовок : Full
Язык : Russian
Default : Нет
Forced : Нет

Текст #2
Идентификатор : 5
Формат : UTF-8
Идентификатор кодека : S_TEXT/UTF8
Идентификатор кодека/Информация : UTF-8 Plain Text
Заголовок : Full
Язык : English
Default : Нет
Forced : Нет


Время скачать торрент






pb.wtf



Скачать Время через торрент http://pic.kartinco.top/images/2/3ll9meyk12.png Скачать фильм Время через торрент бесплантно в хорошем качестве Описание: Добро пожаловать в мир, где время стало единственной и самой твердой валютой, где люди генетически запрограммированы так, что в ... 9.7 10 21
Info! Золотая раздача, скачанное не засчитывается.
Торрент: Зарегистрирован [2013-04-29 16:16] · скачан: 467 раз
Статус: √ проверено
Размер: 5.63 GB
Как cкачать? Как скачать Время через торрент | qTorrent

% Раздел Тема Автор DL S | L
Фильмы [HD 720p, 1080p] (Хороший звук DUB, MVO) [ 7.45 GB ] Время / In Time [2011 BDRip-HEVC 1080p] DUB + AVO - KORSAR kisa1980 Скачать
3 | 0
Фильмы (Blu-ray, BD-Remux, HDDVD) [ 33.84 GB ] Время / In Time [2011 BD Remux 1080p] 2xAVO+DUB [] bober100 Скачать
1 | 0
T Фильмы (мультфильмы) cо спонсором показа (Новинки AVI/MKV) [ 2.92 GB ] В Божье время / In God's Time / The Wristwatch [2017 WEB-DL 720p] MVO ["Синема УС"] bober100 Скачать
1 | 0
T Фильмы (мультфильмы) cо спонсором показа (Новинки AVI/MKV) [ 1.37 GB ] В Божье время / In God's Time / The Wristwatch [2017 WEB-DLRip] MVO ["Синема УС"] bober100 Скачать
1 | 0
Фильмы (HD 720p, 1080p) (48-60 fps) [ 9.5 GB ] Время / In Time [2011 BDRip 720p / 60fps] - [] sheker187 Скачать
2 | 0
Гонзо [ 3.75 GB ] Анальное Время 2 / Anal Time! 2 [2018 Anal DP Compilation DVDRip] Pir@tya2010 Скачать
1 | 0
Фильмы [HD 720p, 1080p] (Хороший звук DUB, MVO) [ 13.64 GB ] Время / In Time [2011 BDRip 1080p by msltel] DUB 2 x AVO msltel Скачать
1 | 0

28-11-2019 20:33  

Отключить всю рекламу на сайте

29-04-2013 16:44 Время Скачать торрент  

фільм просто клас спс Ke$h@
:good:pb.wtf



29-04-2013 18:58 Время Скачать торрент  

slavik97b

Пожалуйста!!!pb.wtf



    Дорогой пользователь! Огромная просьба, поблагодарите релизера, оцените раздачу и оставьте свои комментарий, если Вы скачали Время через торрент бесплатно! Внесите свою лепту в развитие PiratBit!
    Комментировать посты могут только пользователи прошедшие не сложную регистрацию
    Показать сообщения:    

    Время через торрент
    Скачать бесплатно Время
    Время скачать торрент
    Время смотреть онлайн
    Cкачать фильм Время бесплатно
    Время скачать торрент в хорошем качестве
    Время смотреть онлайн бесплатно в хорошем качестве


    Вы не можете начинать темы
    Вы не можете отвечать на сообщения
    Вы не можете редактировать свои сообщения
    Вы не можете удалять свои сообщения
    Вы не можете голосовать в опросах
    Вы не можете прикреплять файлы к сообщениям
    Вы можете скачивать файлы