2 сезон

iTunes

MVO

1

2 сезон

iTunes

iTunes

1 сезон

RePack

30

Ultimate

ВАЖНО

ИГРА 18+

pack

RePack

MK11
pack

Легкие деньги

RePack

jed

RePack

fifa19

RePack

RDR2

RePack

NEED FOR SPEED™ PAYBACK

4 сезон

9 сезон

Бесстыжие 9 сезон

Все сериалы

все сериалы на PB.wtf

RePack

FAR CRY 5

Anonymous, доброе утро, мы не успеваем собрать деньги на оплату серверов за декабрь и январь, помогите нам пожалуйста в это трудное время. В качестве благодарности мы отключим Вам всю рекламу на сайте (укажите свой ник в строку Ваше имя)!

×
  
Magnet ссылка

Геймер в 3Д / Gamer 3D (Марк Невелдайн, Брай / Mark Neveldine, Bria) [2009, Фантастика, Боевик, Триллер, BDrip, 1080p] OverUnder / Вертикальная стереопара pb.wtf

Геймер в 3Д через торрент pb.wtf

Размер: 16.83 GB | Добавлен: 7 лет 8 мес. назад | Торрент скачан:310 раз
Скачать  

30-04-2013 20:12 Геймер в 3Д Скачать торрент  

Геймер / Gamer

Год выпуска: 2009
Страна: США
Студия: Lionsgate, Lakeshore Entertainment
Жанр: Фантастика, Боевик, Триллер
Продолжительность: 01:35:01

Перевод: Профессиональный (дублированный)
Русские субтитры: нет
Режиссер на русском: Марк Невелдайн, Брайан Тейлор
Режиссер на английском: Mark Neveldine, Brian Taylor

В ролях: Жерар Батлер, Эмбер Валлетта, Майкл С. Холл, Кира Седжвик, Логан Лерман, Элисон Ломан, Терри Крюс, Рэмси Мур, Лудакрис, Аарон Йу, Джонатан Чейз, Дэн Каллахан, Бриджит Флеминг, Джонни Витуорт, Кейт Джардин, Майкл Уэстон, Джозеф Д. Рейтман, Джон Де Ланси, Мило Вентимиглиа, Зои Белл, Джон Легуизамо

Описание: Действие фильма происходит в недалёком утопическом будущем, где высочайшее развитие нанотехнологий позволило технологическому гению Кену Кастлу соединить видеоигру с реалити-шоу и смоделировать ультрафункциональную, мультиплеерную игру «Убийцы», которая стала средой обитания местных преступников.
Джон Тиллман, приговоренный к пожизненному заключению за преступление, которого не совершал, должен принять участие в Игре, чтобы получить свободу. Для одного богатого молодого игрока Джон Тиллман это — Кэйбл, всего лишь сим, управляемый персонаж игры. Благодаря своим боевым способностям и физической силе, Кэйбл становится национальным героем и занимает первые позиции в игре.
Каждую неделю миллионы людей во всём мире в режиме онлайн следят за ним и сотней других смертников, которые участвуют в битвах игры. По мнению группы мятежников, которая противостоит Кастлу, его игра — это высокотехнологичное рабство, а он является тем критическим элементом, который необходимо уничтожить. Кэйбл/Тиллман оказался между двумя мощными противоборствующими силами, которые не заинтересованы в том, чтобы он выжил. С каждым шагом, за которым наблюдают миллионы, Джон Тилман сражается, чтобы получить свободу, восстановить свою личность и низвергнуть систему, которая его заключила в тюрьму.



Качество: BDrip
Контейнер: MKV
Формат 3D: OverUnder / Вертикальная стереопара
Порядок ракурсов: левый ракурс первый
Видео кодек: x264
Аудио кодек: DTS , AC3
Видео: AVC / High@L5.0 / 23,976 fps / 1920х2160 / 23,5 Мбит/сек
Аудио: Русский / DTS / 48 KHz / 5.1 ch / 755 Кбит/сек
Аудио 2: Английский / AC3 / 48 KHz / 5.1 ch / 640 Кбит/сек

Релиз группы: ВНИМАНИЕ ! На встроенных ТВ-плейерах работать не будет!!!

Железные плееры на которых воспроизводятся полные стереопары:Popcorn C-200 , Dune HD Smart D1 , Dune HD DUO , Dune HD Smart H1 , Dune HD Smart B1 , Dune HD Max , Dune HD TV-303D , Dune HD Base 3D

Общее
Уникальный идентификатор : 202728971767102231665349526719206407109 (0x98842E02EC6D13CC9DAED6A6B4F23BC5)
Полное имя : E:закачкиGamer.Rip by SeRoGa00.mkv
Формат : Matroska
Версия формата : Version 2
Размер файла : 16,8 Гбайт
Продолжительность : 1 ч. 35 м.
Общий поток : 25,4 Мбит/сек
Дата кодирования : UTC 2013-04-30 09:36:13
Программа кодирования : mkvmerge v3.4.0 ('Rapunzel') сборка от May 15 2010 09:38:20
Библиотека кодирования : libebml v0.8.0 + libmatroska v0.9.0

Видео
Идентификатор : 1
Формат : AVC
Формат/Информация : Advanced Video Codec
Профиль формата : High@L5.0
Параметр CABAC формата : Да
Параметр ReFrames формата : 4 кадра
Идентификатор кодека : V_MPEG4/ISO/AVC
Продолжительность : 1 ч. 35 м.
Битрейт : 23,5 Мбит/сек
Ширина : 1920 пикселей
Высота : 2160 пикселей
Соотношение сторон : 0,889
Частота кадров : 23,976 кадра/сек
Цветовое пространство : YUV
Субдискретизация насыщенности : 4:2:0
Битовая глубина : 8 бит
Тип развёртки : Прогрессивная
Бит/(Пиксели*Кадры) : 0.236
Размер потока : 15,6 Гбайт (93%)
Заголовок : Rip by SeRoGa00
Библиотека кодирования : x264 core 128 r2216kMod 198a7ea
Настройки программы : cabac=1 / ref=4 / deblock=1:-3:-3 / analyse=0x3:0x113 / me=umh / subme=9 / psy=1 / fade_compensate=0.00 / psy_rd=1.00:0.15 / mixed_ref=1 / me_range=16 / chroma_me=1 / trellis=2 / 8x8dct=1 / cqm=0 / deadzone=21,11 / fast_pskip=1 / chroma_qp_offset=-3 / threads=9 / lookahead_threads=1 / sliced_threads=0 / nr=0 / decimate=1 / interlaced=0 / bluray_compat=0 / constrained_intra=0 / bframes=6 / b_pyramid=2 / b_adapt=2 / b_bias=0 / direct=3 / weightb=1 / open_gop=0 / weightp=2 / keyint=250 / keyint_min=23 / scenecut=40 / intra_refresh=0 / rc_lookahead=60 / rc=crf / mbtree=1 / crf=18.0000 / qcomp=0.60 / qpmin=10 / qpmax=69 / qpstep=4 / vbv_maxrate=40000 / vbv_bufsize=40000 / crf_max=0.0 / nal_hrd=none / ip_ratio=1.40 / aq=1:1.00
Язык : English

Аудио #1
Идентификатор : 2
Формат : DTS
Формат/Информация : Digital Theater Systems
Идентификатор кодека : A_DTS
Продолжительность : 1 ч. 35 м.
Вид битрейта : Постоянный
Битрейт : 755 Кбит/сек
Каналы : 6 каналов
Расположение каналов : Front: L C R, Side: L R, LFE
Частота : 48,0 КГц
Битовая глубина : 24 бит
Метод сжатия : С потерями
Размер потока : 513 Мбайт (3%)
Язык : Russian

Аудио #2
Идентификатор : 3
Формат : AC-3
Формат/Информация : Audio Coding 3
Расширение режима : CM (complete main)
Идентификатор кодека : A_AC3
Продолжительность : 1 ч. 35 м.
Вид битрейта : Постоянный
Битрейт : 640 Кбит/сек
Каналы : 6 каналов
Расположение каналов : Front: L C R, Side: L R, LFE
Частота : 48,0 КГц
Битовая глубина : 16 бит
Метод сжатия : С потерями
Размер потока : 435 Мбайт (3%)
Язык : English
pb.wtf



Скачать Геймер в 3Д через торрент http://i46.fastpic.ru/big/2013/0430/e8/3bf3835e3edcda36826eeae4ab6407e8.jpg Скачать фильм Геймер в 3Д через торрент бесплантно в хорошем качестве Описание: Действие фильма происходит в недалёком утопическом будущем, где высочайшее развитие нанотехнологий позволило технологическому ... 9.4 10 17
Info! Золотая раздача, скачанное не засчитывается.
Торрент: Зарегистрирован [2013-04-30 20:12] · скачан: 310 раз
Статус: √ проверено
Размер: 16.83 GB
Как cкачать? Как скачать Геймер в 3Д через торрент | UTorrent

28-11-2019 20:33  

Отключить всю рекламу на сайте

    Дорогой пользователь! Огромная просьба, поблагодарите релизера, оцените раздачу и оставьте свои комментарий, если Вы скачали Геймер в 3Д через торрент бесплатно! Внесите свою лепту в развитие PiratBit!
    Комментировать посты могут только пользователи прошедшие не сложную регистрацию
    Показать сообщения:    

    Геймер в 3Д через торрент
    Скачать бесплатно Геймер в 3Д
    Геймер в 3Д скачать торрент
    Геймер в 3Д смотреть онлайн
    Cкачать фильм Геймер в 3Д бесплатно
    Геймер в 3Д скачать торрент в хорошем качестве
    Геймер в 3Д смотреть онлайн бесплатно в хорошем качестве


    Вы не можете начинать темы
    Вы не можете отвечать на сообщения
    Вы не можете редактировать свои сообщения
    Вы не можете удалять свои сообщения
    Вы не можете голосовать в опросах
    Вы не можете прикреплять файлы к сообщениям
    Вы можете скачивать файлы