Ссылка на приватное зеркало нашего сайта всего за 1$. Внимание количество ограничено!!!

2 сезон

iTunes

1 сезон

1

iTunes

iTunes

iTunes

1 сезон

RePack

30

ИГРА 18+

pack

ВАЖНО

!!Акция!!

Alien_RageХит недели

RePack

MK11
pack

Забери бонус

RePack

jed

!!Акция!!

Alien_Rage

RePack

fifa19

RePack

Assassins Creed: Odyssey

RePack

NEED FOR SPEED™ PAYBACK

4 сезон

9 сезон

Бесстыжие 9 сезон

Все сериалы

все сериалы на PB.wtf

RePack

FAR CRY 5
  

Любовь с риском для жизни / La chance de ma vie (Николя Кюш) [2010 г., мелодрама, комедия, BDRip 720p, Дубляж, лицензия] pb.wtf

Любовь с риском для жизни через торрент pb.wtf

Размер: 5.67 GB | Добавлен: 7 лет 5 мес. назад | Торрент скачан:17 раз
Скачать  

01-05-2013 08:07 Любовь с риском для жизни Скачать торрент  

Любовь с риском для жизни / La chance de ma vie

«Страховка не прилагается»

Год выпуска: 2010
Страна: Франция Бельгия
Жанр: мелодрама, комедия,
Продолжительность: 01:31:08
Перевод: Дубляж, Лицензия
Тип релиза: Лицензия
Субтитры: Есть

Режиссер: Николя Кюш
Продюссер: Оливье Делбоск, Эрик Йехельманн, Марк Миссонье
Сценарий: Люк Босси, Лорен Тернер

Бюджет: €5 000 000
Премьера в мире: 4 января 2011

Зрителям, достигшим 16 лет

Мировой рейтинг IMDB 5.80 (932)



В ролях: Франсуа-Ксавье Демезон, Вирджиния Эфира, Армель Дойч, Рафаэль Персонас, Томас Н’Гиоль, Брижит Роюан, Ив Жак, Мари-Кристин Адам, Эли Семун, Франсис Перрен, Диомид Виноградов, Татьяна Шитова, Иван Жарков, Даниил Эльдаров, Наталья Грачева,

Описание: У Жюльена серьезная проблема. Он прекрасный консультант в брачных вопросах, но ни одна женщина не остается с ним дольше, чем на две недели. Он приносит им несчастье. Не абстрактную неудачу, а вполне конкретное несчастье: его женщины или попадают в больницу несколько раз в неделю, или у них рушится карьера, или они ссорятся навсегда со своими близкими. Джоанна убедится в этом на собственном опыте. В день, когда их пути пересеклись ее карьера находилась на взлете, ее личная жизнь наконец наладилась… Все это может очень быстро измениться.

Качество: BDRip 720p
Формат: MKV
Видео кодек: H.264
Аудио кодек: DTS
Видео: 1280x694 (16:9), 23.976 fps, 5 706 Kbps (0.268 bit/pixel)
Аудио#1: DTS, 48.0 KHz, 6 ch, 1 510 Kbps, CBR (Russian)
Аудио#2: DTS, 48.0 KHz, 6 ch, 1 510 Kbps, CBR (French)
Субтитры: Russian






Общее
Уникальный идентификатор : 207281515354637702828884779438228939261 (0x9BF0F7BD697106CBA1A3398B2764A1FD)
Полное имя : E:Любовь с риском для жизни.2010.BDRip.720p.Rus.Fre.mkv
Формат : Matroska
Версия формата : Version 2
Размер файла : 5,67 Гбайт
Продолжительность : 1 ч. 31 м.
Общий поток : 8903 Кбит/сек
Название фильма : La chance de ma vie 2010
Дата кодирования : UTC 2012-09-01 13:12:57
Программа кодирования : mkvmerge v5.7.0 ('The Whirlwind') built on Jul 8 2012 20:08:51
Библиотека кодирования : libebml v1.2.3 + libmatroska v1.3.0
Attachment : Yes

Видео
Идентификатор : 1
Формат : AVC
Формат/Информация : Advanced Video Codec
Профиль формата : High@L4.1
Параметр CABAC формата : Да
Параметр ReFrames формата : 9 кадров
Идентификатор кодека : V_MPEG4/ISO/AVC
Продолжительность : 1 ч. 31 м.
Битрейт : 5708 Кбит/сек
Ширина : 1280 пикселей
Высота : 694 пикселя
Соотношение сторон : 1,85:1
Режим частоты кадров : Постоянный
Частота кадров : 23,976 кадра/сек
Цветовое пространство : YUV
Субдискретизация насыщенности : 4:2:0
Битовая глубина : 8 бит
Тип развёртки : Прогрессивная
Бит/(Пиксели*Кадры) : 0.268
Размер потока : 3,63 Гбайт (64%)
Заголовок : La chance de ma vie
Библиотека кодирования : x264 core 125 r2208kMod d9d2288
Настройки программы : cabac=1 / ref=9 / deblock=1:-3:-3 / analyse=0x3:0x133 / me=umh / subme=11 / psy=1 / fade_compensate=0.00 / psy_rd=1.10:0.00 / mixed_ref=1 / me_range=64 / chroma_me=1 / trellis=2 / 8x8dct=1 / cqm=0 / deadzone=21,11 / fast_pskip=0 / chroma_qp_offset=-2 / threads=6 / lookahead_threads=1 / sliced_threads=0 / nr=0 / decimate=1 / interlaced=0 / bluray_compat=0 / constrained_intra=0 / bframes=11 / b_pyramid=2 / b_adapt=2 / b_bias=0 / direct=3 / weightb=1 / open_gop=0 / weightp=2 / keyint=240 / keyint_min=23 / scenecut=40 / intra_refresh=0 / rc_lookahead=60 / rc=crf / mbtree=0 / crf=16.5000 / qcomp=0.70 / qpmin=0 / qpmax=69 / qpstep=4 / vbv_maxrate=50000 / vbv_bufsize=62500 / crf_max=0.0 / nal_hrd=none / ip_ratio=1.40 / pb_ratio=1.20 / aq=2:0.70
Язык : French
Default : Да
Forced : Нет
Коэффициенты матрицы : BT.709

Аудио #1
Идентификатор : 2
Формат : DTS
Формат/Информация : Digital Theater Systems
Режим : 16
Параметр Endianness формата : Big
Идентификатор кодека : A_DTS
Продолжительность : 1 ч. 31 м.
Вид битрейта : Постоянный
Битрейт : 1509 Кбит/сек
Каналы : 6 каналов
Расположение каналов : Front: L C R, Side: L R, LFE
Частота : 48,0 КГц
Битовая глубина : 24 бит
Метод сжатия : С потерями
Размер потока : 984 Мбайт (17%)
Заголовок : Дубляж
Язык : Russian
Default : Да
Forced : Нет

Аудио #2
Идентификатор : 3
Формат : DTS
Формат/Информация : Digital Theater Systems
Режим : 16
Параметр Endianness формата : Big
Идентификатор кодека : A_DTS
Продолжительность : 1 ч. 31 м.
Вид битрейта : Постоянный
Битрейт : 1509 Кбит/сек
Каналы : 6 каналов
Расположение каналов : Front: L C R, Side: L R, LFE
Частота : 48,0 КГц
Битовая глубина : 24 бит
Метод сжатия : С потерями
Размер потока : 984 Мбайт (17%)
Заголовок : Французский
Язык : French
Default : Нет
Forced : Нет

Текст
Идентификатор : 4
Формат : UTF-8
Идентификатор кодека : S_TEXT/UTF8
Идентификатор кодека/Информация : UTF-8 Plain Text
Заголовок : Русские
Язык : Russian
Default : Нет
Forced : Нет

Меню
00:00:00.000 : fr:Chapter 1
00:09:53.843 : fr:Chapter 2
00:16:33.117 : fr:Chapter 3
00:22:19.588 : fr:Chapter 4
00:30:07.597 : fr:Chapter 5
00:38:24.176 : fr:Chapter 6
00:44:52.940 : fr:Chapter 7
00:55:43.798 : fr:Chapter 8
01:04:13.099 : fr:Chapter 9
01:09:17.278 : fr:Chapter 10
01:13:08.258 : fr:Chapter 11
01:18:44.594 : fr:Chapter 12


Любовь с риском для жизни скачать торрент






pb.wtf



Скачать Любовь с риском для жизни через торрент http://pic.kartinco.top/images/2/qg931riel2.jpg Скачать фильм Любовь с риском для жизни через торрент бесплантно в хорошем качестве Описание: У Жюльена серьезная проблема. Он прекрасный консультант в брачных вопросах, но ни одна женщина не остается с ним дольше, чем на ... 10 10 3
Info! Золотая раздача, скачанное не засчитывается.
Торрент: Зарегистрирован [2013-05-01 08:07] · скачан: 17 раз
Статус: √ проверено
Размер: 5.67 GB
Как cкачать? Как скачать Любовь с риском для жизни через торрент | qTorrent

% Раздел Тема Автор DL S | L
Фильмы [HD 720p, 1080p] (Хороший звук DUB, MVO) [ 12.21 GB ] Любовь с риском для жизни / La chance de ma vie [2010 BDRip 1080p by msltel] DUB msltel Скачать
1 | 0
Фильмы [HD 720p, 1080p] (Хороший звук DUB, MVO) [ 5.15 GB ] Любовь с риском для жизни / La chance de ma vie [2010 BDRip 720p by msltel] DUB msltel Скачать
1 | 0
Фильмы 2010 [ 701 MB ] Любовь с риском для жизни / La chance de ma vie [2010 HDRip лицензия] 700 mb SD Скачать
1 | 0
Фильмы (DVD фильмы) [ 5.49 GB ] Любовь с риском для жизни / La chance de ma vie [2010 DVD9] R5 «CP-Digital» voovaz Скачать
1 | 0
Фильмы 2010 [ 1.37 GB ] Любовь с риском для жизни / La chance de ma vie [2010 HDRip лицензия] Lil Badun Скачать
1 | 0

28-11-2019 20:33  

Отключить всю рекламу на сайте

    Дорогой пользователь! Огромная просьба, поблагодарите релизера, оцените раздачу и оставьте свои комментарий, если Вы скачали Любовь с риском для жизни через торрент бесплатно! Внесите свою лепту в развитие PiratBit!
    Комментировать посты могут только пользователи прошедшие не сложную регистрацию
    Показать сообщения:    

    Любовь с риском для жизни через торрент
    Скачать бесплатно Любовь с риском для жизни
    Любовь с риском для жизни скачать торрент
    Любовь с риском для жизни смотреть онлайн
    Cкачать фильм Любовь с риском для жизни бесплатно
    Любовь с риском для жизни скачать торрент в хорошем качестве
    Любовь с риском для жизни смотреть онлайн бесплатно в хорошем качестве


    Вы не можете начинать темы
    Вы не можете отвечать на сообщения
    Вы не можете редактировать свои сообщения
    Вы не можете удалять свои сообщения
    Вы не можете голосовать в опросах
    Вы не можете прикреплять файлы к сообщениям
    Вы можете скачивать файлы