1 сезон

1 сезон

iTunes

1

КиноПоиск HD

Кинопоиск HD

iTunes

13

1 сезон

RePack

30

Новинка

ВАЖНО

ИГРА 18+

pack

RePack

MK11
pack

Легкие деньги

RePack

jed

RePack

fifa19

RePack

RDR2

RePack

NEED FOR SPEED™ PAYBACK

4 сезон

9 сезон

Бесстыжие 9 сезон

Все сериалы

все сериалы на PB.wtf

RePack

FAR CRY 5
  
Magnet ссылка

Мой мальчик / About a Boy (Крис Вайц / Chris Weitz, Пол Вайц / Paul Weitz) [2002, США, драма, мелодрама, комедия, HDRip] MVO (R5) pb.wtf

Мой мальчик через торрент pb.wtf

Размер: 749 MB | Добавлен: 7 лет 11 мес. назад | Торрент скачан:46 раз
Скачать  

01-05-2013 11:06 Мой мальчик Скачать торрент  

Мой мальчик / About a Boy
Год выпуска: 2002
Выпущено: США
Жанр: драма, мелодрама, комедия
Продолжительность: 01:41:20
Перевод: Профессиональный (многоголосый, закадровый, R5)
Cубтитры: нет

Режиссер: Крис Вайц / Chris Weitz, Пол Вайц / Paul Weitz

В ролях: Хью Грант, Николас Холт, Тони Коллетт, Рейчел Вайс, Шэрон Смолл, Мэдисон Кук, Джордан Кук, Николас Хатчинсон, Райан Спичли, Джозеф Спичли

Описание: Возраст Уила Фримана уже приближается к сорока годам, а он довольно успешно смог избежать в своей жизни каких бы то ни было обязательств перед кем бы то ни было. Этот состоятельный англичанин никогда не был женат, у него нет детей, у него даже никогда не было постоянной работы.
Отец Уилла был автором популярной рождественской песни, и тем самым избавил своего сына от проблем с деньгами. Уилл живет на проценты, получаемые от использования песни его отца. Чтобы наконец-то повзрослеть и найти себе женщину, Уилл начинает ходить на специально организованные встречи родителей-одиночек, выдавая себя за отца, у которого якобы есть сын. На одной из встреч Уилл встречает двенадцатилетнего Маркуса, сына одной из матерей-одиночек.
Мальчик и Уилл привязываются друг к другу и становятся лучшими друзьями. Маркус находит в Уилле понимающего взрослого, который помогает ему справляться с проблемами, а Уилл начинает постепенно заботиться о мальчике, чувствовать перед ним свою ответственность и взрослеть…

Качество: HDRip
Формат: AVI
Видео кодек: XviD
Аудио кодек: MP3
Видео: 688x288 (2.39:1), 23.976 fps, XviD build 50 ~895 kbps avg, 0.19 bit/pixel
Аудио: 48 kHz, MPEG Layer 3, 2 ch, ~128.00 kbps avg
Раздача от:
D:Moi.Malchik.2002.745 HDRip [YTN] by dexter lex.avi
General
Complete name : D:Moi.Malchik.2002.745 HDRip [YTN] by dexter lex.avi
Format : AVI
Format/Info : Audio Video Interleave
File size : 749 MiB
Duration : 1h 41mn
Overall bit rate : 1 033 Kbps
Writing application : VirtualDubMod 1.5.10.3 | www.virtualdub-fr.org || (build 2550/release)
Writing library : VirtualDubMod build 2550/release
Video #0
ID : 0
Format : MPEG-4 Visual
Format profile : Advanced Simple@L5
Format settings, BVOP : 1
Format settings, QPel : No
Format settings, GMC : No warppoints
Format settings, Matrix : Custom
Codec ID : XVID
Codec ID/Hint : XviD
Duration : 1h 41mn
Bit rate : 895 Kbps
Width : 688 pixels
Height : 288 pixels
Display aspect ratio : 2.39:1
Frame rate : 23.976 fps
Color space : YUV
Chroma subsampling : 4:2:0
Bit depth : 8 bits
Scan type : Progressive
Compression mode : Lossy
Bits/(Pixel*Frame) : 0.188
Stream size : 649 MiB (87%)
Writing library : XviD 1.2.1 (UTC 2008-12-04)
Audio #1
ID : 1
Format : MPEG Audio
Format version : Version 1
Format profile : Layer 3
Codec ID : 55
Codec ID/Hint : MP3
Duration : 1h 41mn
Bit rate mode : Constant
Bit rate : 128 Kbps
Channel(s) : 2 channels
Sampling rate : 48.0 KHz
Compression mode : Lossy
Stream size : 92.7 MiB (12%)
Alignment : Aligned on interleaves
Interleave, duration : 42 ms (1.00 video frame)
Interleave, preload duration : 504 ms
Writing library : LAME3.99r
Encoding settings : -m s -V 4 -q 2 -lowpass 17 -b 128
http://multi-up.com/860714
pb.wtf



Скачать Мой мальчик через торрент http://i47.fastpic.ru/big/2013/0430/22/1132d743c01cf24394a233001d0e5522.jpg Скачать фильм Мой мальчик через торрент бесплантно в хорошем качестве Описание: Возраст Уила Фримана уже приближается к сорока годам, а он довольно успешно смог избежать в своей жизни каких бы то ни было ... 10 10 2
Info! Золотая раздача, скачанное не засчитывается.
Торрент: Зарегистрирован [2013-05-01 11:06] · скачан: 46 раз
Статус: √ проверено
Размер: 749 MB
Как cкачать? Как скачать Мой мальчик через торрент | UTorrent

% Раздел Тема Автор DL S | L
Фильмы 2001-2005 [ 1.46 GB ] Мой мальчик / About a Boy [2002 HDRip] MVO dexter lex Скачать
1 | 0

28-11-2019 20:33  

Отключить всю рекламу на сайте


    Дорогой пользователь! Огромная просьба, поблагодарите релизера, оцените раздачу и оставьте свои комментарий, если Вы скачали Мой мальчик через торрент бесплатно! Внесите свою лепту в развитие PiratBit!
    Комментировать посты могут только пользователи прошедшие не сложную регистрацию
    Показать сообщения:    

    Мой мальчик через торрент
    Скачать бесплатно Мой мальчик
    Мой мальчик скачать торрент
    Мой мальчик смотреть онлайн
    Cкачать фильм Мой мальчик бесплатно
    Мой мальчик скачать торрент в хорошем качестве
    Мой мальчик смотреть онлайн бесплатно в хорошем качестве


    Вы не можете начинать темы
    Вы не можете отвечать на сообщения
    Вы не можете редактировать свои сообщения
    Вы не можете удалять свои сообщения
    Вы не можете голосовать в опросах
    Вы не можете прикреплять файлы к сообщениям
    Вы можете скачивать файлы