2 сезон

iTunes

MVO

1

2 сезон

iTunes

iTunes

1 сезон

RePack

30

Новинка

ВАЖНО

ИГРА 18+

pack

RePack

MK11
pack

Легкие деньги

RePack

jed

RePack

fifa19

RePack

RDR2

RePack

NEED FOR SPEED™ PAYBACK

4 сезон

9 сезон

Бесстыжие 9 сезон

Все сериалы

все сериалы на PB.wtf

RePack

FAR CRY 5

Anonymous, доброе утро, мы не успеваем собрать деньги на оплату серверов за декабрь и январь, помогите нам пожалуйста в это трудное время. В качестве благодарности мы отключим Вам всю рекламу на сайте (укажите свой ник в строку Ваше имя)!

×
  
Magnet ссылка

Скуби-Ду! Истории летнего лагеря (Лагерные страшилки) / Scooby-Doo! Camp Scare (Этан Сполдинг) [2010 г., мультфильм, BDRip 720p, Дубляж, лицензия] pb.wtf

Скуби-Ду! Истории летнего лагеря через торрент pb.wtf

Размер: 2.21 GB | Добавлен: 7 лет 8 мес. назад | Торрент скачан:173 раза
Скачать  

02-05-2013 02:25 Скуби-Ду! Истории летнего лагеря Скачать торрент  

Скуби-Ду! Истории летнего лагеря (Лагерные страшилки) / Scooby-Doo! Camp Scare Год выпуска: 2010
Страна: США
Жанр: мультфильм,
Продолжительность: 01:12:31
Перевод: Дубляж, Лицензия
Субтитры: Русские, английские

Режиссер: Этан Сполдинг
Продюссер: Спайк Брандт, Тони Червоне, Сэм Реджистер
Сценарий: Джед Элинофф, Скотт Томас, Уильям Ханна

Мировой рейтинг IMDB 6.80 (425)


В ролях: Фрэнк Уэлкер, Минди Кон, Мэттью Лиллард, Грэй ДеЛисл, Ди Брэдли Бейкер, Марк Хэмилл, Фил ЛаМарр, Скотт Менвилль, Стивен Рут, Тара Стронг, Никита Прозоровский, Сергей Быстрицкий, Людмила Ильина, Андрей Бархударов, Мария Овчинникова,

Описание: Добро пожаловать в лагерь «Лосёнок», где приветливые вожатые, бесконечные мероприятия и много жутких местных легенд! Кстати, каждый раз, когда кто-то рассказывает историю о призраках, жуткие существа оживают! Но команду Корпорации Тайн не так легко испугать, так что собирайтесь вокруг костра, чтобы поджарить плохих парней. Скуби-Ду, Шэгги, Фредди, Дафни и Велма ищут подсказки для разгадки тайн Дровосека, Рыбака и Банши Чёрного Каньона. И, конечно, Шэгги и Скуби-Ду идут по горячим следам в деле «А что у нас на ужин»! Присоединяйтесь к летнему веселью с Корпорацией Тайн в этом уморительном, полнометражном мультфильме, который придаёт новый смысл понятию «дух лагеря»!

Качество: BDRip 720p
Формат: MKV
Видео кодек: MPEG4
Аудио кодек: AC3
Видео: MPEG-4 AVC, 3453 Кбит/с, 1280x720, 23.976 кадр/c
Аудио#1: Русский (АС3, 2 ch, 192 Кбит/с), английский (АС3, 6 ch, 640 Кбит/c)

Формат : Matroska
Версия формата : Version 2
Размер файла : 2,21 Гбайт
Продолжительность : 1 ч. 12 м.
Общий поток : 4372 Кбит/сек
Название фильма : Scooby-Doo! Camp Scare (2010) - Release for HDCLUB
Дата кодирования : UTC 2012-11-03 17:40:39
Программа кодирования : mkvmerge v5.8.0 ('No Sleep / Pillow') built on Sep 2 2012 15:37:04
Библиотека кодирования : libebml v1.2.3 + libmatroska v1.3.0

Видео
Идентификатор : 1
Формат : AVC
Формат/Информация : Advanced Video Codec
Профиль формата : High@L4.1
Параметр CABAC формата : Да
Параметр ReFrames формата : 9 кадров
Идентификатор кодека : V_MPEG4/ISO/AVC
Продолжительность : 1 ч. 12 м.
Битрейт : 3453 Кбит/сек
Ширина : 1280 пикселей
Высота : 720 пикселей
Соотношение сторон : 16:9
Частота кадров : 23,976 кадра/сек
Цветовое пространство : YUV
Субдискретизация насыщенности : 4:2:0
Битовая глубина : 8 бит
Тип развёртки : Прогрессивная
Бит/(Пиксели*Кадры) : 0.156
Размер потока : 1,75 Гбайт (79%)
Заголовок : Release for HDCLUB
Библиотека кодирования : x264 core 128 r2216 198a7ea
Настройки программы : cabac=1 / ref=9 / deblock=1:-1:-1 / analyse=0x3:0x133 / me=umh / subme=11 / psy=1 / psy_rd=0.90:0.00 / mixed_ref=1 / me_range=48 / chroma_me=1 / trellis=2 / 8x8dct=1 / cqm=0 / deadzone=21,11 / fast_pskip=0 / chroma_qp_offset=-2 / threads=12 / lookahead_threads=2 / sliced_threads=0 / nr=0 / decimate=1 / interlaced=0 / bluray_compat=0 / constrained_intra=0 / bframes=10 / b_pyramid=2 / b_adapt=2 / b_bias=0 / direct=3 / weightb=1 / open_gop=0 / weightp=2 / keyint=240 / keyint_min=24 / scenecut=40 / intra_refresh=0 / rc=crf / mbtree=0 / crf=16.0 / qcomp=0.60 / qpmin=0 / qpmax=69 / qpstep=4 / ip_ratio=1.40 / pb_ratio=1.30 / aq=1:0.80
Язык : English
Default : Да
Forced : Нет

Аудио #1
Идентификатор : 2
Формат : AC-3
Формат/Информация : Audio Coding 3
Профиль формата : Dolby Digital
Расширение режима : CM (complete main)
Идентификатор кодека : A_AC3
Продолжительность : 1 ч. 12 м.
Вид битрейта : Постоянный
Битрейт : 192 Кбит/сек
Каналы : 2 канала
Расположение каналов : Front: L R
Частота : 48,0 КГц
Битовая глубина : 16 бит
Метод сжатия : С потерями
Размер потока : 99,6 Мбайт (4%)
Заголовок : (AC3 2.0 @ 192 kbps - Дубляж, Студия "Пифагор" )
Язык : Russian
Default : Да
Forced : Нет

Аудио #2
Идентификатор : 3
Формат : AC-3
Формат/Информация : Audio Coding 3
Расширение режима : CM (complete main)
Идентификатор кодека : A_AC3
Продолжительность : 1 ч. 12 м.
Вид битрейта : Постоянный
Битрейт : 640 Кбит/сек
Каналы : 6 каналов
Расположение каналов : Front: L C R, Side: L R, LFE
Частота : 48,0 КГц
Битовая глубина : 16 бит
Метод сжатия : С потерями
Размер потока : 332 Мбайт (15%)
Заголовок : (AC3 5.1 @ 640 kbps - Original)
Язык : English
Default : Нет
Forced : Нет

Текст #1
Идентификатор : 4
Формат : UTF-8
Идентификатор кодека : S_TEXT/UTF8
Идентификатор кодека/Информация : UTF-8 Plain Text
Заголовок : SRT
Язык : Russian
Default : Нет
Forced : Нет

Текст #2
Идентификатор : 5
Формат : UTF-8
Идентификатор кодека : S_TEXT/UTF8
Идентификатор кодека/Информация : UTF-8 Plain Text
Заголовок : SRT
Язык : English
Default : Нет
Forced : Нет

Меню
00:00:00.000 : :Chapter 01
00:06:05.655 : :Chapter 02
00:15:44.359 : :Chapter 03
00:27:54.797 : :Chapter 04
00:37:26.285 : :Chapter 05
00:49:44.356 : :Chapter 06
00:59:21.099 : :Chapter 07
01:08:03.579 : :Chapter 08
01:12:30.845 : :Chapter 09


Скуби-Ду! Истории летнего лагеря (Лагерные страшилки) скачать торрент


pb.wtf



Скачать Скуби-Ду! Истории летнего лагеря через торрент http://i46.fastpic.ru/big/2013/0502/71/3be7528a721fa1ed09482852a54e7b71.jpg Скачать фильм Скуби-Ду! Истории летнего лагеря через торрент бесплантно в хорошем качестве Описание: Добро пожаловать в лагерь «Лосёнок», где приветливые вожатые, бесконечные мероприятия и много жутких местных легенд! Кстати, ... 9.9 10 11
Info! Золотая раздача, скачанное не засчитывается.
Торрент: Зарегистрирован [2013-05-02 02:25] · скачан: 173 раз
Статус: √ проверено
Размер: 2.21 GB
Как cкачать? Как скачать Скуби-Ду! Истории летнего лагеря через торрент | UTorrent

% Раздел Тема Автор DL S | L
Иностранные мультфильмы [ 1.37 GB ] Скуби-Ду! Истории летнего лагеря / Scooby-Doo! Camp Scare [2010 мультфильм HDRip лицензия] SD Скачать
1 | 0
Иностранные мультфильмы [ 1.46 GB ] Скуби-Ду! Истории летнего лагеря / Scooby-Doo! Camp Scare [2010 мультфильм BDRip] ACFIORENTINA Скачать
1 | 0
Зарубежные Мультфильмы (DVD) [ 3.64 GB ] Скуби-Ду! История летнего лагеря / Scooby-Doo And The Summer Camp Nightmare [2010 Мультфильм DVD5] ACFIORENTINA Скачать
1 | 0
Иностранные мультфильмы [ 702 MB ] Скуби-Ду! Истории летнего лагеря / Scooby-Doo! Camp Scare [2010 мультфильм DVDRip лицензия] SD Скачать
1 | 0

28-11-2019 20:33  

Отключить всю рекламу на сайте

    Дорогой пользователь! Огромная просьба, поблагодарите релизера, оцените раздачу и оставьте свои комментарий, если Вы скачали Скуби-Ду! Истории летнего лагеря через торрент бесплатно! Внесите свою лепту в развитие PiratBit!
    Комментировать посты могут только пользователи прошедшие не сложную регистрацию
    Показать сообщения:    

    Скуби-Ду! Истории летнего лагеря через торрент
    Скачать бесплатно Скуби-Ду! Истории летнего лагеря
    Скуби-Ду! Истории летнего лагеря скачать торрент
    Скуби-Ду! Истории летнего лагеря смотреть онлайн
    Cкачать фильм Скуби-Ду! Истории летнего лагеря бесплатно
    Скуби-Ду! Истории летнего лагеря скачать торрент в хорошем качестве
    Скуби-Ду! Истории летнего лагеря смотреть онлайн бесплатно в хорошем качестве


    Вы не можете начинать темы
    Вы не можете отвечать на сообщения
    Вы не можете редактировать свои сообщения
    Вы не можете удалять свои сообщения
    Вы не можете голосовать в опросах
    Вы не можете прикреплять файлы к сообщениям
    Вы можете скачивать файлы