1 сезон

1 сезон

iTunes

1

КиноПоиск HD

Кинопоиск HD

iTunes

13

1 сезон

RePack

30

Новинка

ВАЖНО

ИГРА 18+

pack

RePack

MK11
pack

Легкие деньги

RePack

jed

RePack

fifa19

RePack

RDR2

RePack

NEED FOR SPEED™ PAYBACK

4 сезон

9 сезон

Бесстыжие 9 сезон

Все сериалы

все сериалы на PB.wtf

RePack

FAR CRY 5
  
Magnet ссылка

Царство небесное / Kingdom of Heaven (Ридли Скотт) [2005 г., Боевик, Военный, Драма, Зарубежный фильм, Исторический, Мелодрама, Приключения, HDRip, Дубляж, лицензия] pb.wtf

Царство небесное через торрент pb.wtf

Размер: 2.19 GB | Добавлен: 7 лет 11 мес. назад | Торрент скачан:564 раза
Скачать  

03-05-2013 07:19 Царство небесное Скачать торрент  

Царство небесное / Kingdom of Heaven
Год выпуска: 2005
Страна: США,Испания
Жанр: Боевик, Военный, Драма, Зарубежный фильм, Исторический, Мелодрама, Приключения,
Продолжительность: 03:09:00
Перевод: Дубляж, Лицензия
Субтитры: Нет

Режиссер: Ридли Скотт
Продюссер: Ридли Скотт, Карим Абубэйд, Марк Албела
Сценарий: Уильям Монахэн

Премьера в мире: Дата выхода в России (или в Мире): 05.05.2005

В ролях: Орландо Блум, Эдвард Нортон, Эва Грин, Лиам Нисон, Джереми Айронс, Николай Костер-Валдау, Эрик Эбуани, Халед Эль Набауи, Джон Финч, Майкл Фицджералд, Брендан Глисон, Кевин МакКидд, Майкл Шин, Александр Сиддиг, Ульрих Томсен, Юко Ахола, Йен Глен, Дэвид Тьюлис, Мартон Чокаш,

Описание: По воле случая юноша Бэлиан за непродолжительный отрезок времени прошёл путь от простого оружейника до рыцаря-крестоносца.
Его храбрость не может вызывать сомнений, его подвиги никогда не остаются незамеченными. Сама леди Сибила благоволит к нему, а её муж сходит с ума от ревности и готов развязать войну, чтобы погубить рыцаря и его господ.

Качество: HDRip
Формат: avi
Видео кодек: XviD
Аудио кодек: AC3
Видео: XviD,720x304, 1195 Кбит/сек ,23,976 кадра/сек

Аудио#1: русский,AC-3,448 Кбит/сек,6 каналов,48,0 КГц






Общее
Полное имя : D:Carstvo.nebesnoe.2005.HDRip.avi
Формат : AVI
Формат/Информация : Audio Video Interleave
Профиль формата : OpenDML
Размер файла : 2,19 Гбайт
Продолжительность : 3 ч. 9 м.
Общий поток : 1655 Кбит/сек
Программа кодирования : VirtualDubMod 1.5.10.2 (build 2540/release)
Библиотека кодирования : VirtualDubMod build 2540/release

Видео
Идентификатор : 0
Формат : MPEG-4 Visual
Профиль формата : Advanced Simple@L5
Параметр BVOP формата : 1
Параметр QPel формата : Нет
Параметр GMC формата : Без точки перехода
Параметр матрицы формата : Default (MPEG)
Идентификатор кодека : XVID
Идентификатор кодека/Подсказка : XviD
Продолжительность : 3 ч. 9 м.
Битрейт : 1195 Кбит/сек
Ширина : 720 пикселей
Высота : 304 пикселя
Соотношение сторон : 2,35:1
Частота кадров : 23,976 кадра/сек
Цветовое пространство : YUV
Субдискретизация насыщенности : 4:2:0
Битовая глубина : 8 бит
Тип развёртки : Прогрессивная
Метод сжатия : С потерями
Бит/(Пиксели*Кадры) : 0.228
Размер потока : 1,58 Гбайт (72%)
Библиотека кодирования : XviD 1.2.0.dev47 (UTC 2006-11-01)

Аудио
Идентификатор : 1
Формат : AC-3
Формат/Информация : Audio Coding 3
Расширение режима : CM (complete main)
Параметр Endianness формата : Big
Идентификатор кодека : 2000
Продолжительность : 3 ч. 9 м.
Вид битрейта : Постоянный
Битрейт : 448 Кбит/сек
Каналы : 6 каналов
Расположение каналов : Front: L C R, Side: L R, LFE
Частота : 48,0 КГц
Битовая глубина : 16 бит
Метод сжатия : С потерями
Задержка видео : 12 мс.
Размер потока : 607 Мбайт (27%)
Выравнивание : Разделение по промежуткам
Продолжительность промежутка : 42 мс. (1,00 видеокадр)
Время предзагрузки промежутка : 500 мс.

pb.wtf



Скачать Царство небесное через торрент https://pic.kartinco.top/images/2/26bsmeb3s4.jpg Скачать фильм Царство небесное через торрент бесплантно в хорошем качестве Описание: По воле случая юноша Бэлиан за непродолжительный отрезок времени прошёл путь от простого оружейника до рыцаря-крестоносца. Его ... 9.4 10 30
Info! Золотая раздача, скачанное не засчитывается.
Торрент: Зарегистрирован [2013-05-03 07:19] · скачан: 564 раз
Статус: √ проверено
Размер: 2.19 GB
Как cкачать? Как скачать Царство небесное через торрент | UTorrent

% Раздел Тема Автор DL S | L
Фильмы [HD 720p, 1080p] (Хороший звук DUB, MVO) [ 15.49 GB ] Царство небесное / Kingdom Of Heaven [2005 военный история BDRip-HEVC 1080p ] [Режиссерская версия] 3xAVO+MVO+DUB bober100 Скачать
3 | 0
Фильмы (BDRip, HDrip-AVC) (48-60 fps) [ 3.95 GB ] Царство небесное / Kingdom of Heaven [2005 BDRip-AVC 60fps Director's cut Dub + MVO] от R.G. HD-Films Tiberiumsun69 Скачать
4 | 1
Фильмы [HD 720p, 1080p] (Хороший звук DUB, MVO) [ 18.55 GB ] Царство небесное / Kingdom of Heaven [Director's Cut] [2005 военный история BDRip 720p] MVO + 3xAVO + Dub + Original Eng -Lexx- Скачать
1 | 0
Фильмы [HD 720p, 1080p] (Хороший звук DUB, MVO) [ 13.99 GB ] Царство небесное / Kingdom of Heaven [2005 история BDRip 1080p] smaster Скачать
1 | 0
Фильмы 2001-2005 [ 2.19 GB ] Царство небесное / Kingdom of Heaven [2005 Историческая HDRip] [Directors Cut / Режиссерская версия] DUB + L_E_X Скачать
1 | 0
Фильмы 2001-2005 [ 6.67 GB ] Царство небесное / Kingdom of Heaven [2005 военный история BDRip-AVC] Dub MVO AVO Режиссёрская версия mihis Скачать
2 | 0
Фильмы 2001-2005 [ 2.73 GB ] Царство небесное / Kingdom of Heaven [2005 Военный Зарубежный фильм Исторический Мело BDRip MVO лицензия] 666gtr666 Скачать
1 | 0


Последний раз редактировалось: 666gtr666 (2013-05-03 13:53), всего редактировалось 2 раз(а)

28-11-2019 20:33  

Отключить всю рекламу на сайте

03-05-2013 07:48 Царство небесное Скачать торрент  

666gtr666
Исправь формат и битрейт видео укажи правильно. У тебя же выложено МИ.pb.wtf



    Дорогой пользователь! Огромная просьба, поблагодарите релизера, оцените раздачу и оставьте свои комментарий, если Вы скачали Царство небесное через торрент бесплатно! Внесите свою лепту в развитие PiratBit!
    Комментировать посты могут только пользователи прошедшие не сложную регистрацию
    Показать сообщения:    

    Царство небесное через торрент
    Скачать бесплатно Царство небесное
    Царство небесное скачать торрент
    Царство небесное смотреть онлайн
    Cкачать фильм Царство небесное бесплатно
    Царство небесное скачать торрент в хорошем качестве
    Царство небесное смотреть онлайн бесплатно в хорошем качестве


    Вы не можете начинать темы
    Вы не можете отвечать на сообщения
    Вы не можете редактировать свои сообщения
    Вы не можете удалять свои сообщения
    Вы не можете голосовать в опросах
    Вы не можете прикреплять файлы к сообщениям
    Вы можете скачивать файлы