2 сезон

iTunes

MVO

1

2 сезон

iTunes

iTunes

1 сезон

RePack

30

Новинка

ВАЖНО

ИГРА 18+

pack

RePack

MK11
pack

Легкие деньги

RePack

jed

RePack

fifa19

RePack

RDR2

RePack

NEED FOR SPEED™ PAYBACK

4 сезон

9 сезон

Бесстыжие 9 сезон

Все сериалы

все сериалы на PB.wtf

RePack

FAR CRY 5

Anonymous, добрый день, мы не успеваем собрать деньги на оплату серверов за декабрь и январь, помогите нам пожалуйста в это трудное время. В качестве благодарности мы отключим Вам всю рекламу на сайте (укажите свой ник в строку Ваше имя)!

×
  
Magnet ссылка

Бабло (Константин Буслов) [2011 г., комедия, криминал, BDRip] pb.wtf

Бабло через торрент pb.wtf

Размер: 1.46 GB | Добавлен: 7 лет 8 мес. назад | Торрент скачан:371 раз
Скачать  

04-05-2013 05:27 Бабло Скачать торрент  

Бабло
Год выпуска: 2011
Страна: Россия
Жанр: комедия, криминал,
Продолжительность: 01:31:59

Режиссер: Константин Буслов
Продюссер: Сергей Сельянов, Роман Романцов
Сценарий: Константин Буслов

Премьера в мире: 13 октября 2011



В ролях:
Роман Мадянов
Яков Кучеревский
Мария Берсенева
Георгий Гургулия
Михаил Месхи
Гия Гогишвили
Владимир Сычев
Александр Фисенко
Дмитрий Куличков
Борис Георгиевский,

Описание: Москва. Наши дни. В центре города из машины двое воришек крадут сумку с миллионом евро, думая, что им, наконец, повезло, и даже не представляя, во что на самом деле они ввязались. За деньгами начинается настоящая охота. Перед искушением не может устоять никто. Сумма в виде двух пачек денег по полмиллиона евро делает абсолютно разных людей одинаковыми в своих поступках и желаниях. А началось все с того, что «миллионщик» Григорий не захотел честно платить налоги.

Качество: BDRip
Формат: AVI
Видео кодек: XviD
Аудио кодек: AC3
Видео: 704x384, (1,85:1), 23,976 кадра/сек, 1809 Кбит/сек, 0.279 бит/пикс
Аудио#1: 48,0 КГц, АС3, 6 каналов, 448 Кбит/сек
скриншот  скриншот  скриншот  скриншот  скриншот  скриншот  
Общее
Полное имя : D:загрузкиБабло. BDRip.avi
Формат : AVI
Формат/Информация : Audio Video Interleave
Размер файла : 1,46 Гбайт
Продолжительность : 1 ч. 31 м.
Общий поток : 2267 Кбит/сек
Название фильма : Бабло (2011) BDRip
Режиссёр : The next
Программа кодирования : VirtualDubMod 1.5.10.2 (build 2542/release)

Примечание : 3.02.2012

Видео
Идентификатор : 0
Формат : MPEG-4 Visual
Профиль формата : Advanced Simple@L5
Параметр BVOP формата : 1
Параметр QPel формата : Нет
Параметр GMC формата : Без точки перехода
Параметр матрицы формата : Выборочная
Идентификатор кодека : XVID
Идентификатор кодека/Подсказка : XviD
Продолжительность : 1 ч. 31 м.
Битрейт : 1809 Кбит/сек
Ширина : 704 пикселя
Высота : 384 пикселя
Соотношение сторон : 1,85:1
Частота кадров : 23,976 кадра/сек
Цветовое пространство : YUV
Субдискретизация насыщенности : 4:2:0
Битовая глубина : 8 бит
Тип развёртки : Прогрессивная
Метод сжатия : С потерями
Бит/(Пиксели*Кадры) : 0.279
Размер потока : 1,16 Гбайт (80%)
Библиотека кодирования : XviD 72

Аудио
Идентификатор : 1
Формат : AC-3
Формат/Информация : Audio Coding 3
Расширение режима : CM (complete main)
Параметр Endianness формата : Big
Идентификатор кодека : 2000
Продолжительность : 1 ч. 31 м.
Вид битрейта : Постоянный
Битрейт : 448 Кбит/сек
Каналы : 6 каналов
Расположение каналов : Front: L C R, Side: L R, LFE
Частота : 48,0 КГц
Битовая глубина : 16 бит
Метод сжатия : С потерями
Размер потока : 295 Мбайт (20%)
Выравнивание : Разделение по промежуткам
Продолжительность промежутка : 42 мс. (1,00 видеокадр)
Время предзагрузки промежутка : 500 мс.

pb.wtf



Скачать Бабло через торрент http://pic.kartinco.top/images/2/m2rsfm7jv9.png Скачать фильм Бабло через торрент бесплантно в хорошем качестве Описание: Москва. Наши дни. В центре города из машины двое воришек крадут сумку с миллионом евро, думая, что им, наконец, повезло, и даже ... 9.6 10 23
Info! Золотая раздача, скачанное не засчитывается.
Торрент: Зарегистрирован [2013-05-04 05:27] · скачан: 371 раз
Статус: √ проверено
Размер: 1.46 GB
Как cкачать? Как скачать Бабло через торрент | UTorrent

% Раздел Тема Автор DL S | L
Домашнее порно [ 424 MB ] Английская МИЛФа История сдачи жены за баблосик [2020 Amateur CamRip 720p] Скорпион1976 Скачать
2 | 0
T Релизы по Парсеру [Игры, Сериалы и Фильмы и другое...] [ 19.26 GB ] Бабло [2011 Россия Blu-ray disc 1080p] sanekbest1 Скачать
1 | 0
Политика, религия [ 54 MB ] Бандерлоги грызутся за бабло [2014 документальный WEBRip Оригинал] metanoia Скачать
1 | 0
Наши фильмы (DVD фильмы) [ 4.82 GB ] Бабло [2011 DVD9 лицензия] DEVI Скачать
1 | 0
Фильмы 2011 [ 701 MB ] Бабло [2011 HDRip][ лицензия ] MrZenIT Скачать
1 | 0
Трейлеры и дополнительные материалы к фильмам [ 343 MB ] Бабло [2011 WEBRip-AVC] Трейлер Sудья Скачать
1 | 0

28-11-2019 20:33  

Отключить всю рекламу на сайте

13-10-2013 12:19 Бабло Скачать торрент  

дайте скорость pb.wtf



18-03-2014 11:15 Бабло Скачать торрент  

Встаньте на раздачу yes yespb.wtf



    Дорогой пользователь! Огромная просьба, поблагодарите релизера, оцените раздачу и оставьте свои комментарий, если Вы скачали Бабло через торрент бесплатно! Внесите свою лепту в развитие PiratBit!
    Комментировать посты могут только пользователи прошедшие не сложную регистрацию
    Показать сообщения:    

    Бабло через торрент
    Скачать бесплатно Бабло
    Бабло скачать торрент
    Бабло смотреть онлайн
    Cкачать фильм Бабло бесплатно
    Бабло скачать торрент в хорошем качестве
    Бабло смотреть онлайн бесплатно в хорошем качестве


    Вы не можете начинать темы
    Вы не можете отвечать на сообщения
    Вы не можете редактировать свои сообщения
    Вы не можете удалять свои сообщения
    Вы не можете голосовать в опросах
    Вы не можете прикреплять файлы к сообщениям
    Вы можете скачивать файлы