2 сезон

iTunes

MVO

1

2 сезон

iTunes

iTunes

1 сезон

RePack

30

Ultimate

ВАЖНО

ИГРА 18+

pack

RePack

MK11
pack

Легкие деньги

RePack

jed

RePack

fifa19

RePack

RDR2

RePack

NEED FOR SPEED™ PAYBACK

4 сезон

9 сезон

Бесстыжие 9 сезон

Все сериалы

все сериалы на PB.wtf

RePack

FAR CRY 5

Anonymous, доброе утро, мы не успеваем собрать деньги на оплату серверов за декабрь и январь, помогите нам пожалуйста в это трудное время. В качестве благодарности мы отключим Вам всю рекламу на сайте (укажите свой ник в строку Ваше имя)!

×
  
Magnet ссылка

Возвращение героя / The Last Stand (Ким Чжи Ун) [2013 г., боевик, триллер, криминал, BDRip-AVC, Дубляж, лицензия]+ Оригинал pb.wtf

Возвращение героя через торрент pb.wtf

Размер: 2.82 GB | Добавлен: 7 лет 8 мес. назад | Торрент скачан:224 раза
Скачать  

04-05-2013 12:48 Возвращение героя Скачать торрент  

Возвращение героя / The Last Stand «Спокойная жизнь не для него»



  • Год выпуска: 2013
  • Страна: США
  • Жанр: боевик, триллер, криминал

  • Продолжительность: 01:47:03
  • Перевод: Профессиональный (полное дублирование)| лицензия+Оригинал
  • Субтитры: Русские (вшитые, отключаемые)

  • Режиссер: Ким Чжи Ун / Kim Ji Woon
  • Сценарий: Эндрю Кнауэр / Andrew Knauer
  • Продюсер: Лоренцо Ди Бонавентура / Lorenzo di Bonaventura, Эдвард Фи / Edward Fee, Мики Ли / Miky Lee, Уди Недиви / Udi Nedivi, Майкл Пасернек / Michael Paseornek
  • В ролях: Арнольд Шварценеггер (Ray Owens), Форест Уитакер (Agent John Bannister), Джонни Ноксвил (Lewis Dinkum), Родриго Санторо (Frank Martinez), Джейми Александр (Sarah Torrance), Луис Гузман (Mike Figuerola), Эдуардо Норьега (Gabriel Cortez), Петер Стормаре (Burrell), Зэк Гилфорд (Jerry Bailey), Генезис Родригез (Agent Ellen Richards), Сонни Лэндэм (Henry), Гарри Дин Стэнтон (Mr. Parsons)
  • Бюджет: $45 000 000
  • Сборы в США: $12 050 299
  • Сборы в России: $2 804 757
  • Сборы в мире: $37 183 273
  • Мировая премьера: 12 января 2013
  • Релиз на DVD: 25 апреля 2013, «CP Дистрибуция»
  • Релиз на Blu-ray: 25 апреля 2013, «CP Дистрибуция»
  • Описание:
    Самая опасная и жестокая банда наркоторговцев сбегает из-под конвоя ФБР. Прихватив заложника, они мчатся к мексиканской границе на бронированной, оснащенной первоклассным вооружением машине. У них на пути стоит лишь тихий городок, за порядком в котором следит шериф Оуенс. Когда-то он был одним из лучших полицейских Лос-Анджелеса, теперь он вернулся.

  • Рейтинг
    kinopoisk.ru: 6.855 (12 179)
    imdb.com: 6.60 (25 102)
    MPAA: R - Лицам до 17 лет обязательно присутствие взрослого

  • Качество: BDRip-AVC
  • Формат: MKV
  • Видео кодек: H.264
  • Аудио кодек:AC3
  • Видео: AVC; 1108x464 (2.40:1); 2797 Kbps; 24 fps; 0,227 bpp
  • Аудио №1: русский; AC3; 448 Kbps; CBR; 6 ch; 16 bit,48 kHz
    Аудио №2: английский; AC3; 448 Kbps; CBR; 6 ch; 16 bit,48 kHz


  • General
    Unique ID : 232338887034494883324418135091795025922 (0xAECAD78BE7BA2D5B8A8E4B8089016002)
    Complete name : D:ТорентыVozvrashenie.geroya.2013.BDRip-AVC.H264.AC3.-R.G.Shadoof.mkv
    Format : Matroska
    Format version : Version 4 / Version 2
    File size : 2.82 GiB
    Duration : 1h 47mn
    Overall bit rate : 3 768 Kbps
    Movie name : Возвращение героя / The Last Stand (2013) BDRip-AVC | 22.04.2013 | Encode: Deep Fusion
    Encoded date : UTC 2010-02-22 21:41:31
    Writing application : mkvmerge v5.9.0 ('On The Loose') built on Dec 9 2012 15:37:01
    Writing library : libebml v1.3.0 + libmatroska v1.4.0

    Video
    ID : 1
    Format : AVC
    Format/Info : Advanced Video Codec
    Format profile : High@L4.1
    Format settings, CABAC : Yes
    Format settings, ReFrames : 12 frames
    Codec ID : V_MPEG4/ISO/AVC
    Duration : 1h 47mn
    Bit rate : 2 797 Kbps
    Width : 1 108 pixels
    Height : 464 pixels
    Display aspect ratio : 2.40:1
    Frame rate : 24.000 fps
    Color space : YUV
    Chroma subsampling : 4:2:0
    Bit depth : 8 bits
    Scan type : Progressive
    Bits/(Pixel*Frame) : 0.227
    Stream size : 2.09 GiB (74%)
    Title : Encode: Deep Fusion | R.G. Shadoof | nnm-club.ru
    Writing library : x264 core 129 r2245 bc13772
    Encoding settings : cabac=1 / ref=12 / deblock=1:-2:-3 / analyse=0x3:0x113 / me=umh / subme=11 / psy=1 / psy_rd=1.00:0.05 / mixed_ref=1 / me_range=64 / chroma_me=1 / trellis=2 / 8x8dct=1 / cqm=0 / deadzone=21,11 / fast_pskip=0 / chroma_qp_offset=-5 / threads=6 / lookahead_threads=1 / sliced_threads=0 / nr=0 / decimate=1 / interlaced=0 / bluray_compat=0 / constrained_intra=0 / bframes=9 / b_pyramid=2 / b_adapt=2 / b_bias=0 / direct=1 / weightb=1 / open_gop=0 / weightp=2 / keyint=230 / keyint_min=23 / scenecut=40 / intra_refresh=0 / rc_lookahead=60 / rc=crf / mbtree=0 / crf=17.8 / qcomp=0.60 / qpmin=10 / qpmax=69 / qpstep=4 / vbv_maxrate=62500 / vbv_bufsize=50000 / crf_max=0.0 / nal_hrd=none / ip_ratio=1.40 / pb_ratio=1.30 / aq=1:0.80
    Language : English
    Default : Yes
    Forced : No

    Audio #1
    ID : 2
    Format : AC-3
    Format/Info : Audio Coding 3
    Mode extension : CM (complete main)
    Codec ID : A_AC3
    Duration : 1h 47mn
    Bit rate mode : Constant
    Bit rate : 448 Kbps
    Channel(s) : 6 channels
    Channel positions : Front: L C R, Side: L R, LFE
    Sampling rate : 48.0 KHz
    Bit depth : 16 bits
    Compression mode : Lossy
    Stream size : 343 MiB (12%)
    Title : Дубляж
    Language : Russian
    Default : Yes
    Forced : No

    Audio #2
    ID : 3
    Format : AC-3
    Format/Info : Audio Coding 3
    Mode extension : CM (complete main)
    Codec ID : A_AC3
    Duration : 1h 47mn
    Bit rate mode : Constant
    Bit rate : 448 Kbps
    Channel(s) : 6 channels
    Channel positions : Front: L C R, Side: L R, LFE
    Sampling rate : 48.0 KHz
    Bit depth : 16 bits
    Compression mode : Lossy
    Stream size : 343 MiB (12%)
    Title : Оригинальная звуковая дорожка
    Language : English
    Default : No
    Forced : No

    Text
    ID : 4
    Format : UTF-8
    Codec ID : S_TEXT/UTF8
    Codec ID/Info : UTF-8 Plain Text
    Title : русские (полные)
    Language : Russian
    Default : Yes
    Forced : No

    Menu
    00:00:00.000 : en:00:00:00.000
    00:05:50.792 : en:00:05:50.792
    00:13:07.375 : en:00:13:07.375
    00:22:35.083 : en:00:22:35.083
    00:32:58.792 : en:00:32:58.792
    00:41:50.167 : en:00:41:50.167
    00:48:05.750 : en:00:48:05.750
    00:57:00.208 : en:00:57:00.208
    01:07:55.292 : en:01:07:55.292
    01:15:02.125 : en:01:15:02.125
    01:22:42.458 : en:01:22:42.458
    01:27:25.833 : en:01:27:25.833
    • Первая главная роль Арнольда Шварценеггера после фильма «Терминатор 3: Восстание машин» (2003).
    • Первый стих 28-й главы Книги притчей Соломоновых является девизом, выгравированным на мемориальной доске перед ратушей и офисом шерифа.
    • Когда Рэй Оуэнс ведет Chevrolet Corvette ZR1, то на подголовнике хорошо видны вышитые буквы SS. Но эти буквы от другой модели Camaro, и, соответственно, на подголовнике должно быть вышито ZR1.
    • Агент Митчелл упоминает, что Chevrolet Corvette ZR1 быстрее любого вертолета. Однако вертолет ФБР следит за ним с близкого расстояния и практически не отстает.

    © Оформление by Vetalpb.wtf



  • Скачать Возвращение героя через торрент http://i47.fastpic.ru/big/2013/0504/61/11847ce8ff611d48a5a467eac22e0b61.png Скачать фильм Возвращение героя через торрент бесплантно в хорошем качестве Описание: Самая опасная и жестокая банда наркоторговцев сбегает из-под конвоя ФБР. Прихватив заложника, они мчатся к мексиканской границе ... 10 10 12
    Info! Золотая раздача, скачанное не засчитывается.
    Торрент: Зарегистрирован [2013-05-04 12:49] · скачан: 224 раз
    Статус: √ проверено
    Размер: 2.82 GB
    Как cкачать? Как скачать Возвращение героя через торрент | UTorrent

    % Раздел Тема Автор DL S | L
    Фильмы [HD 720p, 1080p] (Хороший звук DUB, MVO) [ 3.55 GB ] Возвращение героя / The Last Stand [USA Transfer][2013 BDRip 720p + Оригинал] avt83 Скачать
    1 | 0
    Фильмы [HD 720p, 1080p] (Хороший звук DUB, MVO) [ 9.93 GB ] Возвращение героя / The Last Stand [2013 BDRip 1080p + Оригинал] Trava-HD Скачать
    1 | 0

    28-11-2019 20:33  

    Отключить всю рекламу на сайте


    04-05-2013 16:44 Возвращение героя Скачать торрент  

    Эх арни где твои 20 лет)= сам фильм до воли неплохой,даже если б не шварц был в главной роли.Весь фильм ждал что то от арни но так и ничего не произошло, старость не радость...пора внуков нянчить.pb.wtf



      Дорогой пользователь! Огромная просьба, поблагодарите релизера, оцените раздачу и оставьте свои комментарий, если Вы скачали Возвращение героя через торрент бесплатно! Внесите свою лепту в развитие PiratBit!
      Комментировать посты могут только пользователи прошедшие не сложную регистрацию
      Показать сообщения:    

      Возвращение героя через торрент
      Скачать бесплатно Возвращение героя
      Возвращение героя скачать торрент
      Возвращение героя смотреть онлайн
      Cкачать фильм Возвращение героя бесплатно
      Возвращение героя скачать торрент в хорошем качестве
      Возвращение героя смотреть онлайн бесплатно в хорошем качестве


      Вы не можете начинать темы
      Вы не можете отвечать на сообщения
      Вы не можете редактировать свои сообщения
      Вы не можете удалять свои сообщения
      Вы не можете голосовать в опросах
      Вы не можете прикреплять файлы к сообщениям
      Вы можете скачивать файлы