Ссылка на приватное зеркало нашего сайта всего за 1$. Внимание количество ограничено!!!

2 сезон

iTunes

1 сезон

1

iTunes

iTunes

iTunes

1 сезон

RePack

30

ИГРА 18+

pack

ВАЖНО

!!Акция!!

Alien_RageХит недели

RePack

MK11
pack

Забери бонус

RePack

jed

!!Акция!!

Alien_Rage

RePack

fifa19

RePack

Assassins Creed: Odyssey

RePack

NEED FOR SPEED™ PAYBACK

4 сезон

9 сезон

Бесстыжие 9 сезон

Все сериалы

все сериалы на PB.wtf

RePack

FAR CRY 5
  

Дублер / La doublure (Франсис Вебер) [2006 г., драма, комедия, BDRip 720p, Дубляж, лицензия] pb.wtf

Дублер через торрент pb.wtf

Размер: 6.05 GB | Добавлен: 7 лет 5 мес. назад | Торрент скачан:14 раз
Скачать  

04-05-2013 16:46 Дублер Скачать торрент  

Дублер / La doublure

«A new comedy from the writer/director of The Closet and The Dinner Game»

Год выпуска: 2006
Страна:
Жанр: драма, комедия,
Продолжительность: 01:25:27
Перевод: Дубляж, Лицензия
Тип релиза: Лицензия
Субтитры: Есть

Режиссер: Франсис Вебер
Продюссер: Патрис Леду, Франческо Пампили, Франсис Вебер
Сценарий: Франсис Вебер

Бюджет: €25 320 000
Премьера в мире: 29 марта 2006



Мировой рейтинг IMDB 6.60 (5 899)



В ролях: Гад Эльмалех, Элис Тальони, Даниель Отой, Кристин Скотт Томас, Ришар Берри, Виржини Ледуайен, Дэни Бун, Мишель Йонас, Мишель Омон, Лоран Гамелон, Валерий Сторожик, Наталья Казначеева, Станислав Стрелков, Марина Тарасова, Дальвин Щербаков,

Описание: Пьер Левасер — один из самых богатых людей в мире. Но держатель контрольного пакета акций его компании — красавица-жена Кристина. Развод с ней равносилен краху. Это не мешает Пьеру содержать любовницу, длинноногую топ-модель Елену.
Однажды ловкие папарацци фотографируют его у дома подружки. Пьер обвиняет в связи с Еленой парковщика Пиньона. Адвокату остается лишь доказать, что Пиньон и Елена — любовники. И тут вмешивается Его величество, господин Случай…


Качество: BDRip 720p
Формат: MKV
Видео кодек: H.264
Аудио кодек: DTS
Видео: 1280x548 (2.35:1), 23.976 fps, 7 871 Kbps (0.471 bit/pixel)
Аудио#1: DTS, 48.0 KHz, 6 ch, 755 Kbps, CBR (Russian)
Аудио#2: DTS, 48.0 KHz, 6 ch, 1 510 Kbps, CBR (French)
Субтитры: Russian








Общее
Уникальный идентификатор : 210801095488949622340994458014523548629 (0x9E96D07024D6A0A6B5C0A400AA4763D5)
Полное имя : E:Дублер.2006.720p.BluRay.x264.DTS.Rus.Fre.mkv
Формат : Matroska
Версия формата : Version 2
Размер файла : 6,05 Гбайт
Продолжительность : 1 ч. 25 м.
Общий поток : 10,1 Мбит/сек
Название фильма : La.Doublure.2006.720p.BluRay.x264.DTS
Дата кодирования : UTC 2010-08-16 10:21:34
Программа кодирования : mkvmerge v4.0.0 ('The Stars were mine') built on Jun 6 2010 16:18:42
Библиотека кодирования : libebml v1.0.0 + libmatroska v1.0.0

Видео
Идентификатор : 1
Формат : AVC
Формат/Информация : Advanced Video Codec
Профиль формата : High@L4.1
Параметр CABAC формата : Да
Параметр ReFrames формата : 8 кадров
Идентификатор кодека : V_MPEG4/ISO/AVC
Продолжительность : 1 ч. 25 м.
Битрейт : 7871 Кбит/сек
Ширина : 1280 пикселей
Высота : 544 пикселя
Соотношение сторон : 2,35:1
Режим частоты кадров : Постоянный
Частота кадров : 23,976 кадра/сек
Цветовое пространство : YUV
Субдискретизация насыщенности : 4:2:0
Битовая глубина : 8 бит
Тип развёртки : Прогрессивная
Бит/(Пиксели*Кадры) : 0.471
Размер потока : 4,58 Гбайт (76%)
Библиотека кодирования : x264 core 68 r1183M f21daff
Настройки программы : cabac=1 / ref=8 / deblock=1:-3:-3 / analyse=0x3:0x113 / me=umh / subme=9 / psy_rd=1.1:0.0 / mixed_ref=1 / me_range=32 / chroma_me=1 / trellis=2 / 8x8dct=1 / cqm=0 / deadzone=21,11 / chroma_qp_offset=-2 / threads=4 / nr=0 / decimate=1 / mbaff=0 / bframes=6 / b_pyramid=1 / b_adapt=2 / b_bias=0 / direct=3 / wpredb=1 / keyint=250 / keyint_min=25 / scenecut=40 / rc=2pass / bitrate=7871 / ratetol=1.0 / qcomp=0.60 / qpmin=10 / qpmax=51 / qpstep=4 / cplxblur=20.0 / qblur=0.5 / vbv_maxrate=50000 / vbv_bufsize=50000 / ip_ratio=1.40 / pb_ratio=1.30 / aq=1:0.80
Язык : French
Default : Да
Forced : Нет

Аудио #1
Идентификатор : 2
Формат : DTS
Формат/Информация : Digital Theater Systems
Режим : 16
Параметр Endianness формата : Big
Идентификатор кодека : A_DTS
Продолжительность : 1 ч. 25 м.
Вид битрейта : Постоянный
Битрейт : 755 Кбит/сек
Каналы : 6 каналов
Расположение каналов : Front: L C R, Side: L R, LFE
Частота : 48,0 КГц
Битовая глубина : 24 бит
Метод сжатия : С потерями
Размер потока : 461 Мбайт (7%)
Язык : Russian
Default : Да
Forced : Нет

Аудио #2
Идентификатор : 3
Формат : DTS
Формат/Информация : Digital Theater Systems
Режим : 16
Параметр Endianness формата : Big
Идентификатор кодека : A_DTS
Продолжительность : 1 ч. 25 м.
Вид битрейта : Постоянный
Битрейт : 1509 Кбит/сек
Каналы : 6 каналов
Расположение каналов : Front: L C R, Side: L R, LFE
Частота : 48,0 КГц
Битовая глубина : 16 бит
Метод сжатия : С потерями
Размер потока : 922 Мбайт (15%)
Язык : French
Default : Нет
Forced : Нет

Текст
Идентификатор : 4
Формат : UTF-8
Идентификатор кодека : S_TEXT/UTF8
Идентификатор кодека/Информация : UTF-8 Plain Text
Язык : Russian
Default : Да
Forced : Нет

Меню
00:00:00.000 : en:00:00:00.000
00:03:42.388 : en:00:03:42.388
00:06:49.575 : en:00:06:49.575
00:09:33.072 : en:00:09:33.072
00:12:28.664 : en:00:12:28.664
00:15:35.934 : en:00:15:35.934
00:19:21.827 : en:00:19:21.827
00:24:48.904 : en:00:24:48.904
00:27:29.689 : en:00:27:29.689
00:31:24.215 : en:00:31:24.215
00:34:32.862 : en:00:34:32.862
00:37:13.356 : en:00:37:13.356
00:41:10.342 : en:00:41:10.342
00:44:18.614 : en:00:44:18.614
00:48:42.085 : en:00:48:42.085
00:54:02.697 : en:00:54:02.697
00:57:31.990 : en:00:57:31.990
00:59:27.939 : en:00:59:27.939
01:03:58.042 : en:01:03:58.042
01:07:29.044 : en:01:07:29.044
01:12:15.038 : en:01:12:15.038
01:16:03.558 : en:01:16:03.558
01:18:37.128 : en:01:18:37.128
01:21:55.118 : en:01:21:55.118


Дублер скачать торрент






pb.wtf



Скачать Дублер через торрент http://pic.kartinco.top/images/2/9d84dbbsf5.jpg Скачать фильм Дублер через торрент бесплантно в хорошем качестве Описание: Пьер Левасер — один из самых богатых людей в мире. Но держатель контрольного пакета акций его компании — красавица-жена Кристина. ... 10 10 3
Info! Золотая раздача, скачанное не засчитывается.
Торрент: Зарегистрирован [2013-05-04 16:46] · скачан: 14 раз
Статус: √ проверено
Размер: 6.05 GB
Как cкачать? Как скачать Дублер через торрент | qTorrent

% Раздел Тема Автор DL S | L
Фильмы 2006-2008 [ 1.47 GB ] Дублер / La doublure [2006 BDRip] zapadluka Скачать
1 | 0
Фильмы [HD 720p, 1080p] (Хороший звук DUB, MVO) [ 8.3 GB ] Дублер / La doublure [2006 BDRip ] M@RCU$ Скачать
1 | 0

28-11-2019 20:33  

Отключить всю рекламу на сайте

    Дорогой пользователь! Огромная просьба, поблагодарите релизера, оцените раздачу и оставьте свои комментарий, если Вы скачали Дублер через торрент бесплатно! Внесите свою лепту в развитие PiratBit!
    Комментировать посты могут только пользователи прошедшие не сложную регистрацию
    Показать сообщения:    

    Дублер через торрент
    Скачать бесплатно Дублер
    Дублер скачать торрент
    Дублер смотреть онлайн
    Cкачать фильм Дублер бесплатно
    Дублер скачать торрент в хорошем качестве
    Дублер смотреть онлайн бесплатно в хорошем качестве


    Вы не можете начинать темы
    Вы не можете отвечать на сообщения
    Вы не можете редактировать свои сообщения
    Вы не можете удалять свои сообщения
    Вы не можете голосовать в опросах
    Вы не можете прикреплять файлы к сообщениям
    Вы можете скачивать файлы