Ссылка на приватное зеркало нашего сайта всего за 1$. Внимание количество ограничено!!!

2 сезон

iTunes

1 сезон

1

iTunes

iTunes

iTunes

1 сезон

RePack

30

ИГРА 18+

pack

ВАЖНО

!!Акция!!

Alien_RageХит недели

RePack

MK11
pack

Забери бонус

RePack

jed

!!Акция!!

Alien_Rage

RePack

fifa19

RePack

Assassins Creed: Odyssey

RePack

NEED FOR SPEED™ PAYBACK

4 сезон

9 сезон

Бесстыжие 9 сезон

Все сериалы

все сериалы на PB.wtf

RePack

FAR CRY 5
  

Через Вселенную / Across the Universe (Джули Тэймор) [2007 г., мюзикл, драма, мелодрама, BDRip 720p, Профессиональный + Оригинал] pb.wtf

Через Вселенную через торрент pb.wtf

Размер: 5.05 GB | Добавлен: 7 лет 5 мес. назад | Торрент скачан:12 раз
Скачать  

04-05-2013 17:40 Через Вселенную Скачать торрент  

Через Вселенную / Across the Universe

«All you need is love.»

Год выпуска: 2007
Страна: США
Жанр: мюзикл, драма, мелодрама,
Продолжительность: 02:13:17
Перевод: Профессиональный + Оригинал
Тип релиза: Лицензия
Субтитры: Есть

Режиссер: Джули Тэймор
Продюссер: Мэттью Гросс, Дженнифер Тодд, Сюзанн Тодд
Сценарий: Дик Клемент, Йен Ла Френас, Джули Тэймор

Бюджет: $70 000 000
Премьера в мире: 9 сентября 2007



Мировой рейтинг IMDB 7.40 (68 894)



В ролях: Ивэн Рэйчел Вуд, Джим Стёрджесс, Джо Андерсон, Дэна Фучс, Мартин Лютер, Т.В. Карпио, Боно, Джо Кокер, Кэрол Вудс, Спенсер Лифф,

Описание: История любви Джуда и Люси, которые встретились и полюбили друг друга в Америке образца 1968 года. Отсюда и последствия: герои не остаются безучастными ни к экспериментам над сознанием, ни к политике, ни к войне во Вьетнаме.

Бурное время затягивает их жизни в настоящий водоворот общественных событий. Фильм сопровождается песнями «Битлз», которые, так или иначе, иллюстрируют все происходящее на экране. Паре предстоит многое пережить, чтобы в конце-концов убедиться в одной непреложной истине: «All you need is love»…


Качество: BDRip 720p
Формат: MKV
Видео кодек: H.264
Аудио кодек: DTS
Видео: 1280x534 (2.35:1), 23.976 fps, 4 807 Kbps (0.232 bit/pixel)
Аудио#1: DTS, 48.0 KHz, 6 ch, 755 Kbps, CBR (Russian) Профессиональный (многоголосный, закадровый)
Аудио#2: DTS, 48.0 KHz, 6 ch, 755 Kbps, CBR (English)
Субтитры: Russian, Russian, Russian, English






Общее
Уникальный идентификатор : 195725369188280543973914469516611260281 (0x933F55BE99F163B18699147F4BFD8F79)
Полное имя : F:Через Вселенную.720р..mkv
Формат : Matroska
Версия формата : Version 2
Размер файла : 5,05 Гбайт
Продолжительность : 2 ч. 13 м.
Общий поток : 5424 Кбит/сек
Название фильма : Через Вселенную
Дата кодирования : UTC 2010-11-16 04:19:04
Программа кодирования : mkvmerge v3.4.0 ('Rapunzel') built on May 15 2010 09:38:20
Библиотека кодирования : libebml v0.8.0 + libmatroska v0.9.0

Видео
Идентификатор : 1
Формат : AVC
Формат/Информация : Advanced Video Codec
Профиль формата : High@L4.1
Параметр CABAC формата : Да
Параметр ReFrames формата : 11 кадров
Идентификатор кодека : V_MPEG4/ISO/AVC
Продолжительность : 2 ч. 13 м.
Битрейт : 4807 Кбит/сек
Ширина : 1280 пикселей
Высота : 534 пикселя
Соотношение сторон : 2,40:1
Режим частоты кадров : Постоянный
Частота кадров : 23,976 кадра/сек
Цветовое пространство : YUV
Субдискретизация насыщенности : 4:2:0
Битовая глубина : 8 бит
Тип развёртки : Прогрессивная
Бит/(Пиксели*Кадры) : 0.232
Размер потока : 3,54 Гбайт (70%)
Заголовок : Across the Universe
Библиотека кодирования : x264 core 107 r1766 f9f0035
Настройки программы : cabac=1 / ref=11 / deblock=1:-2:-2 / analyse=0x3:0x133 / me=umh / subme=9 / psy=1 / psy_rd=1.10:0.00 / mixed_ref=1 / me_range=64 / chroma_me=1 / trellis=2 / 8x8dct=1 / cqm=0 / deadzone=21,11 / fast_pskip=0 / chroma_qp_offset=-2 / threads=9 / sliced_threads=0 / nr=0 / decimate=1 / interlaced=0 / constrained_intra=0 / bframes=16 / b_pyramid=2 / b_adapt=2 / b_bias=0 / direct=3 / weightb=1 / open_gop=0 / weightp=2 / keyint=250 / keyint_min=23 / scenecut=40 / intra_refresh=0 / rc_lookahead=60 / rc=crf / mbtree=0 / crf=19.0 / qcomp=0.60 / qpmin=10 / qpmax=51 / qpstep=4 / vbv_maxrate=50000 / vbv_bufsize=62500 / crf_max=0.0 / ip_ratio=1.40 / pb_ratio=1.30 / aq=1:1.10 / nal_hrd=none
Язык : English
Default : Нет
Forced : Нет
Основные цвета : BT.709
Характеристики трансфера : BT.709
Коэффициенты матрицы : BT.709

Аудио #1
Идентификатор : 2
Формат : DTS
Формат/Информация : Digital Theater Systems
Режим : 16
Параметр Endianness формата : Big
Идентификатор кодека : A_DTS
Продолжительность : 2 ч. 13 м.
Вид битрейта : Постоянный
Битрейт : 755 Кбит/сек
Каналы : 6 каналов
Расположение каналов : Front: L C R, Side: L R, LFE
Частота : 48,0 КГц
Битовая глубина : 24 бит
Метод сжатия : С потерями
Размер потока : 719 Мбайт (14%)
Заголовок : DTS 5.1 48 KHz 754 kbps[MVO]
Язык : Russian
Default : Да
Forced : Нет

Аудио #2
Идентификатор : 3
Формат : DTS
Формат/Информация : Digital Theater Systems
Режим : 16
Параметр Endianness формата : Big
Идентификатор кодека : A_DTS
Продолжительность : 2 ч. 13 м.
Вид битрейта : Постоянный
Битрейт : 755 Кбит/сек
Каналы : 6 каналов
Расположение каналов : Front: L C R, Side: L R, LFE
Частота : 48,0 КГц
Битовая глубина : 24 бит
Метод сжатия : С потерями
Размер потока : 719 Мбайт (14%)
Заголовок : DTS 5.1 48 KHz 754 kbps[Original]
Язык : English
Default : Нет
Forced : Нет

Текст #1
Идентификатор : 4
Формат : UTF-8
Идентификатор кодека : S_TEXT/UTF8
Идентификатор кодека/Информация : UTF-8 Plain Text
Заголовок : Lyrics only[ver.1]
Язык : Russian
Default : Нет
Forced : Нет

Текст #2
Идентификатор : 5
Формат : UTF-8
Идентификатор кодека : S_TEXT/UTF8
Идентификатор кодека/Информация : UTF-8 Plain Text
Заголовок : Lyrics only[ver.2]
Язык : Russian
Default : Нет
Forced : Нет

Текст #3
Идентификатор : 6
Формат : UTF-8
Идентификатор кодека : S_TEXT/UTF8
Идентификатор кодека/Информация : UTF-8 Plain Text
Заголовок : Full
Язык : Russian
Default : Нет
Forced : Нет

Текст #4
Идентификатор : 7
Формат : UTF-8
Идентификатор кодека : S_TEXT/UTF8
Идентификатор кодека/Информация : UTF-8 Plain Text
Заголовок : Original
Язык : English
Default : Нет
Forced : Нет

Меню
00:00:00.000 : en:Girl
00:02:20.098 : en:Hold Me Tight
00:04:27.558 : en:All My Loving
00:08:49.237 : en:I Want To Hold Your Hand
00:17:39.183 : en:With A Little Help From My Friends
00:20:35.817 : en:It Won't Be Long
00:23:38.375 : en:I've Just Seen A Face
00:32:37.664 : en:Let It Be
00:36:40.156 : en:Come Together
00:42:12.196 : en:Why Don't We Do It In The Road?
00:46:49.598 : en:If I Fell
00:53:01.386 : en:I Want You (She's So Heavy)
00:57:19.185 : en:Dear Prudence
01:01:17.090 : en:Flying
01:09:01.262 : en:Being For The Benefit Of Mr. Kite!
01:13:00.918 : en:Because
01:16:14.695 : en:Something
01:20:24.986 : en:Oh! Darling
01:24:17.594 : en:Strawberry Fields Forever
01:29:31.491 : en:Revolution
01:34:12.605 : en:While My Guitar Gently Weeps
01:38:44.877 : en:Across the Universe
01:40:31.608 : en:Helter Skelter
01:45:32.284 : en:And I Love Her
01:49:37.696 : en:Happiness Is A Warm Gun
01:53:41.606 : en:Blackbird
01:55:12.155 : en:Hey Jude
01:59:14.605 : en:Don't Let Me Down
02:02:19.498 : en:All You Need Is Love
02:05:41.408 : en:Lucy In The Sky With Diamonds


Через Вселенную скачать торрент






pb.wtf



Скачать Через Вселенную через торрент http://i47.fastpic.ru/big/2013/0504/8a/338fd5837f5db48b00a58941d58b468a.jpg Скачать фильм Через Вселенную через торрент бесплантно в хорошем качестве Описание: История любви Джуда и Люси, которые встретились и полюбили друг друга в Америке образца 1968 года. Отсюда и последствия: герои не ... 10 10 2
Info! Золотая раздача, скачанное не засчитывается.
Торрент: Зарегистрирован [2013-05-04 17:40] · скачан: 12 раз
Статус: √ проверено
Размер: 5.05 GB
Как cкачать? Как скачать Через Вселенную через торрент | qTorrent

% Раздел Тема Автор DL S | L
Ultra HD (UHD: 2K, 4K, 8K) — видео сверхвысокой чёткости [ 59.29 GB ] Через вселенную / Across the universe [2007 мюзикл UHD Blu-ray 2160p] MVO [] bober100 Скачать
1 | 0
Фильмы [HD 720p, 1080p] (Хороший звук DUB, MVO) [ 11.54 GB ] Через Вселенную / Across the Universe [2007 мюзикл BDRip 1080p от еnvy / NNNB] MVO еnvy Скачать
13 | 0
Фильмы [HD 720p, 1080p] (Хороший звук DUB, MVO) [ 13.47 GB ] Через Вселенную / Across the Universe [2007 мюзикл BDRip 1080p by msltel] MVO msltel Скачать
1 | 0
Фильмы [HD 720p, 1080p] (Хороший звук DUB, MVO) [ 5.23 GB ] Через Вселенную / Across the Universe [2007 мюзикл BDRip 720p by msltel] MVO msltel Скачать
1 | 0
Фильмы 2006-2008 [ 2.05 GB ] Через Вселенную / Across the Universe [2007 мюзикл HDRip] кэп Скачать
1 | 0
Фильмы 2006-2008 [ 2.19 GB ] Через вселенную / Across the Universe [2007 Музыкальный Любовный роман BDRip] M@RCU$ Скачать
1 | 0

28-11-2019 20:33  

Отключить всю рекламу на сайте

14-06-2014 05:39 Через Вселенную Скачать торрент  

Огромное спасибоpb.wtf



    Дорогой пользователь! Огромная просьба, поблагодарите релизера, оцените раздачу и оставьте свои комментарий, если Вы скачали Через Вселенную через торрент бесплатно! Внесите свою лепту в развитие PiratBit!
    Комментировать посты могут только пользователи прошедшие не сложную регистрацию
    Показать сообщения:    

    Через Вселенную через торрент
    Скачать бесплатно Через Вселенную
    Через Вселенную скачать торрент
    Через Вселенную смотреть онлайн
    Cкачать фильм Через Вселенную бесплатно
    Через Вселенную скачать торрент в хорошем качестве
    Через Вселенную смотреть онлайн бесплатно в хорошем качестве


    Вы не можете начинать темы
    Вы не можете отвечать на сообщения
    Вы не можете редактировать свои сообщения
    Вы не можете удалять свои сообщения
    Вы не можете голосовать в опросах
    Вы не можете прикреплять файлы к сообщениям
    Вы можете скачивать файлы