Death Stranding+DLC+АВТОАКТИВАЦИЯ

iTunes

iTunes

iTunes

1

iTunes

iTunes

iTunes

iTunes

iTunes

30
pack

$ от Little Big

ВАЖНО

!!Акция!!

Alien_RageХит недели

RePack

Resident Evil 21

ИГРА 18+

pack

RePack

jed

!!Акция!!

Alien_Rage

RePack

fifa19

RePack

Assassins Creed: Odyssey

RePack

NEED FOR SPEED™ PAYBACK

4 сезон

9 сезон

Бесстыжие 9 сезон

Все сериалы

все сериалы на PB.wtf

RePack

FAR CRY 5
  

Универсальный солдат 4 / Universal Soldier: Day of Reckoning (Джон Хайамс) [2012 г., фантастика, боевик, триллер, WEB-DL 720p, Дубляж, лицензия] pb.wtf

Универсальный солдат 4 через торрент pb.wtf

Размер: 3.91 GB | Добавлен: 7 лет 2 мес. назад | Торрент скачан:125 раз
Скачать  

04-05-2013 18:46 Универсальный солдат 4 Скачать торрент  



Универсальный солдат 4

Universal Soldier: Day of Reckoning

«Under their own command»

Год выпуска: 2012
Страна: США
Жанр: фантастика, боевик, триллер,
Продолжительность: 01:53:20
Перевод: Дубляж, Лицензия
Субтитры: Есть

Режиссер: Джон Хайамс
Продюссер: Крэйг Баумгартен, Моше Дайамант, Аллен Шапиро
Сценарий: Джон Хайамс, Даг Магнусон, Джон Гринхалг

Бюджет: $11 500 000
Премьера в мире: 23 августа 2012


Мировой рейтинг IMDB 5.10 (8 710)


В ролях: Жан-Клод Ван Дамм, Скотт Эдкинс, Андрей Орловский, Дольф Лундгрен, Мария Боннер, Тони Жарро, Крэйг Уолкер, Эндрю Сиккинг, Джеймс ДюМонт, Дэвид Дженсен, Александр Рахленко, Илья Исаев, Михаил Георгиу, Ирина Киреева, Никита Прозоровский,

Описание: Настоящее время. Программа «Unisol» по-прежнему актуальна и снова введена в эксплуатацию. Давним и непримиримым врагам времён Вьетнамской войны Эндрю Скотту и Люку Деверо суждено встретиться в очередной раз, дабы продолжить своё извечное противостояние и нескончаемую борьбу. Однако, новые опасности и трудности заставляют двух солдат на время объединиться пред лицом общей неприятности, что весьма ненадолго. Ясно одно: кровавый исход и брутальный финал неизбежен…

Качество: WEB-DL 720p
Формат: MKV
Видео кодек: H.264
Аудио кодек: AC3
Видео: 1280x536 (2.35:1), 23.976 fps, 4 006 Kbps (0.244 bit/pixel)
Аудио#1: AC-3, 48.0 KHz, 6 ch, 448 Kbps, CBR (Russian)
Аудио#2: AC-3, 48.0 KHz, 6 ch, 384 Kbps, CBR (English)
Субтитры: English








Общее
Уникальный идентификатор : 190950844920275646511423703875766671223 (0x8FA7CB86063FCD61A1F5C1C5B8635777)
Полное имя : E:Универсальный солдат 4.2012.720p..mkv
Формат : Matroska
Версия формата : Version 2
Размер файла : 3,91 Гбайт
Продолжительность : 1 ч. 53 м.
Общий поток : 4936 Кбит/сек
Дата кодирования : UTC 2012-11-24 20:07:24
Программа кодирования : mkvmerge v5.8.0 ('No Sleep / Pillow') built on Sep 2 2012 15:37:04
Библиотека кодирования : libebml v1.2.3 + libmatroska v1.3.0

Видео
Идентификатор : 1
Формат : AVC
Формат/Информация : Advanced Video Codec
Профиль формата : Main@L3.1
Параметр CABAC формата : Нет
Параметр ReFrames формата : 2 кадра
Идентификатор кодека : V_MPEG4/ISO/AVC
Продолжительность : 1 ч. 53 м.
Битрейт : 4006 Кбит/сек
Ширина : 1280 пикселей
Высота : 536 пикселей
Соотношение сторон : 2,40:1
Режим частоты кадров : Постоянный
Частота кадров : 23,976 кадра/сек
Цветовое пространство : YUV
Субдискретизация насыщенности : 4:2:0
Битовая глубина : 8 бит
Тип развёртки : Прогрессивная
Бит/(Пиксели*Кадры) : 0.244
Размер потока : 3,17 Гбайт (81%)
Язык : English
Default : Да
Forced : Нет
Основные цвета : BT.709
Характеристики трансфера : BT.709
Коэффициенты матрицы : BT.709

Аудио #1
Идентификатор : 2
Формат : AC-3
Формат/Информация : Audio Coding 3
Расширение режима : CM (complete main)
Параметр Endianness формата : Big
Идентификатор кодека : A_AC3
Продолжительность : 1 ч. 53 м.
Вид битрейта : Постоянный
Битрейт : 448 Кбит/сек
Каналы : 6 каналов
Расположение каналов : Front: L C R, Side: L R, LFE
Частота : 48,0 КГц
Битовая глубина : 16 бит
Метод сжатия : С потерями
Размер потока : 363 Мбайт (9%)
Заголовок : RUS DUB
Язык : Russian
Default : Да
Forced : Да

Аудио #2
Идентификатор : 3
Формат : AC-3
Формат/Информация : Audio Coding 3
Расширение режима : CM (complete main)
Параметр Endianness формата : Big
Идентификатор кодека : A_AC3
Продолжительность : 1 ч. 53 м.
Вид битрейта : Постоянный
Битрейт : 384 Кбит/сек
Каналы : 6 каналов
Расположение каналов : Front: L C R, Side: L R, LFE
Частота : 48,0 КГц
Битовая глубина : 16 бит
Метод сжатия : С потерями
Размер потока : 311 Мбайт (8%)
Язык : English
Default : Нет
Forced : Нет

Текст
Идентификатор : 4
Формат : UTF-8
Идентификатор кодека : S_TEXT/UTF8
Идентификатор кодека/Информация : UTF-8 Plain Text
Язык : English
Default : Да
Forced : Нет

Меню
00:00:00.000 : en:Chapter 1
00:06:44.000 : en:Chapter 2
00:16:52.000 : en:Chapter 3
00:23:27.000 : en:Chapter 4
00:29:58.000 : en:Chapter 5
00:37:52.000 : en:Chapter 6
00:46:21.000 : en:Chapter 7
00:52:50.000 : en:Chapter 8
00:59:21.000 : en:Chapter 9
01:08:44.000 : en:Chapter 10
01:18:08.000 : en:Chapter 11
01:21:28.000 : en:Chapter 12
01:34:37.000 : en:Chapter 13
01:41:56.000 : en:Chapter 14
01:46:28.000 : en:Chapter 15


Универсальный солдат 4 скачать торрент






pb.wtf



Скачать Универсальный солдат 4 через торрент http://pic.kartinco.top/images/2/z1fx8bag9g.jpg Скачать фильм Универсальный солдат 4 через торрент бесплантно в хорошем качестве Описание: Настоящее время. Программа «Unisol» по-прежнему актуальна и снова введена в эксплуатацию. Давним и непримиримым врагам времён ... 9.3 10 8
Info! Золотая раздача, скачанное не засчитывается.
Торрент: Зарегистрирован [2013-05-04 18:46] · скачан: 125 раз
Статус: √ проверено
Размер: 3.91 GB
Как cкачать? Как скачать Универсальный солдат 4 через торрент | qTorrent

% Раздел Тема Автор DL S | L
Фильмы 2012 [ 2.19 GB ] Универсальный солдат 4 / Universal Soldier: Day of Reckoning [2012 BDRip-AVC] DUB + Original + Sub potroks Скачать
1 | 0
3D Фильмы [ 6.63 GB ] Универсальный солдат 4 в 3D / Universal Soldier: Day of Reckoning in 3D [2012 слова BDRip 1080p лицензия] Anaglyph slaventi-69 Скачать
1 | 0
3D Фильмы [ 13.64 GB ] Универсальный солдат 4 в 3Д / Universal Soldier: Day of Reckoning 3D [2012 BDrip 1080p] OverUnder / Вертикальная стереопара serega768 Скачать
1 | 0
Фильмы 2012 [ 2.05 GB ] Универсальный солдат 4 / Universal Soldier: Day of Reckoning [2012 HDRip DUB лицензия] PsYcho Скачать
1 | 0
Фильмы 2012 [ 1.37 GB ] Универсальный солдат 4 / Universal Soldier: Day of Reckoning [2012 HDRip лицензия] Ворон Скачать
1 | 0
Фильмы 2012 [ 1.37 GB ] Универсальный солдат 4 / Universal Soldier: Day of Reckoning [2012 VODRip лицензия] SD Скачать
1 | 0
Фильмы 2012 [ 1.67 GB ] Универсальный солдат 4 / Universal Soldier: Day of Reckoning [2012 DVDRip-AVC] DUB potroks Скачать
1 | 0

28-11-2019 20:33  

Отключить всю рекламу на сайте

    Дорогой пользователь! Огромная просьба, поблагодарите релизера, оцените раздачу и оставьте свои комментарий, если Вы скачали Универсальный солдат 4 через торрент бесплатно! Внесите свою лепту в развитие PiratBit!
    Комментировать посты могут только пользователи прошедшие не сложную регистрацию
    Показать сообщения:    

    Универсальный солдат 4 через торрент
    Скачать бесплатно Универсальный солдат 4
    Универсальный солдат 4 скачать торрент
    Универсальный солдат 4 смотреть онлайн
    Cкачать фильм Универсальный солдат 4 бесплатно
    Универсальный солдат 4 скачать торрент в хорошем качестве
    Универсальный солдат 4 смотреть онлайн бесплатно в хорошем качестве


    Вы не можете начинать темы
    Вы не можете отвечать на сообщения
    Вы не можете редактировать свои сообщения
    Вы не можете удалять свои сообщения
    Вы не можете голосовать в опросах
    Вы не можете прикреплять файлы к сообщениям
    Вы можете скачивать файлы