новый адрес
Ссылка на приватное зеркало всего за 1$. Внимание количество ограничено!!!

iTunes

1+1

iTunes

мы

WEB-DL

1

iTunes

Чернобыль

iTunes

Ральф против интернета

Лицензия

ПШазам

Лицензия

Оно 2

Лицензия

30
pack

Вам бонус

ВАЖНО

!!Акция!!

Alien_RageХит недели

RePack

Resident Evil 21

ИГРА 18+

pack

RePack

jed

!!Акция!!

Alien_Rage

RePack

fifa19

RePack

Assassins Creed: Odyssey

RePack

NEED FOR SPEED™ PAYBACK

3 сезон

9 сезон

Бесстыжие 9 сезон

Все сериалы

все сериалы на PB.wtf

RePack

FAR CRY 5
Ребята, катастрофически не хватает 1900р. для оплаты серверов за Октябрь (всвязи с блокировками трафик упал в 3 раза), 1-2р., выручайте.
  

Человек-слон / The Elephant Man (Дэвид Линч) [1980 г., драма, биография, HDRip, MVO, лицензия] pb.wtf

Человек-слон через торрент pb.wtf

Размер: 7.62 GB | Добавлен: 6 лет 7 мес. назад | Торрент скачан:26 раз
Скачать  

05-05-2013 03:24 Человек-слон Скачать торрент  

Человек-слон / The Elephant Man
Год выпуска: 1980
Страна: США
Жанр: драма, биография,
Продолжительность: 02:03:12
Перевод: Профессиональный многоголосый, Лицензия
Субтитры: русские,английские,немецкие

Режиссер: Дэвид Линч
Продюссер: Джонатан Сэнгер, Стюарт Корнфелд, Мэл Брукс
Сценарий: Кристофер Де Вор, Эрик Бергрен, Дэвид Линч

Бюджет: $5 000 000
Премьера в мире: 3 октября 1980



В ролях:
Энтони Хопкинс
Джон Хёрт
Энн Бэнкрофт
Джон Гилгуд
Уэнди Хиллер
Фредди Джонс
Майкл Элфик
Ханна Гордон
Хелен Райан
Джон Стэндин

Описание: Это правдивая и печальная история жизни реально существовавшего в 19 веке человека, Джона Меррика, страдавшего редчайшей болезнью, вызывавшей чудовищные деформации тела.

Молодой хирург Тривес, увидев это несчастное и забитое существо в балагане, выкупает его у хозяина из чисто научного интереса, но с удивлением обнаруживает в нем человека интеллектуально развитого и духовного. Профессиональный интерес сменяется состраданием, феномен становится моден в высшем свете, сама королева благословляет оставить его в больнице навсегда…
* В эпизоде, когда Джона преследует разъяренная толпа, в массовке, спускающейся за героем в подземный переход, можно заметить Дэвида Линча.
* Настоящее имя Человека-слона — Джозеф, а не Джон, как написано в книге Трэвеса. До сих пор неизвестно, почему имя было изменено.
* Грим Джона Херта был создан на основе представленного в Королевской больнице Лондона заспиртованного тела Джозефа Меррика. Накладка грима каждый день занимала 12 часов.
* Медики до сих пор спорят насчет природы уродства Джозефа Меррика. Большинство ученых считает, что он страдал от синдрома Протея, который вызывает необычный рост головы, костей и кожи. Но, возможно, Меррика поразил нейрофиброматоз — редчайшее заболевание, которое может также вызывать деформацию костей и рост доброкачественных образований.
* Продюсер Мел Брукс, известный главным образом как комедиограф, намеренно убрал своё имя из титров, чтобы у зрителя не сложилось превратного мнения о фильме.
* В основе фильма — книга Фредерика Тривза «Человек-слон» и частично Эшли Монтегю «Человек-слон: Этюд о человеческом достоинстве».
Качество: HDRip
Формат: MKV
Видео кодек: H.264
Аудио кодек: AC3
Видео: 1916x800, (2,40:1), 23,976 кадра/сек, 8462 Кбит/сек, 0.230 бит/пикс
Аудио#1: 48,0 КГц, АС3, 6 каналов, 384 Кбит/сек
скриншот  скриншот  скриншот  скриншот  скриншот  скриншот  
Общее
Уникальный идентификатор : 197128556297572341589810153235430639304 (0x944D9435DA5FE40989B160ACD3AE06C8)
Полное имя : D:загрузкиЧеловек-слон HDRip.mkv
Формат : Matroska
Версия формата : Version 1
Размер файла : 7,62 Гбайт
Продолжительность : 2 ч. 3 м.
Общий поток : 8850 Кбит/сек
Название фильма : CHERRY
Дата кодирования : UTC 2008-12-30 16:53:28
Программа кодирования : mkvmerge v2.3.0 ('Freak U') built on Sep 9 2008 17:43:22
Библиотека кодирования : libebml v0.7.8 + libmatroska v0.8.1
Attachment : Yes

Видео
Идентификатор : 1
Формат : AVC
Формат/Информация : Advanced Video Codec
Профиль формата : High@L4.1
Параметр CABAC формата : Да
Параметр ReFrames формата : 5 кадров
Идентификатор кодека : V_MPEG4/ISO/AVC
Продолжительность : 2 ч. 3 м.
Битрейт : 8462 Кбит/сек
Ширина : 1916 пикселей
Высота : 800 пикселей
Соотношение сторон : 2,40:1
Режим частоты кадров : Постоянный
Частота кадров : 23,976 кадра/сек
Цветовое пространство : YUV
Субдискретизация насыщенности : 4:2:0
Битовая глубина : 8 бит
Тип развёртки : Прогрессивная
Бит/(Пиксели*Кадры) : 0.230
Размер потока : 7,13 Гбайт (94%)
Заголовок : Release for HDClub
Библиотека кодирования : x264 core 58 svn-736M
Настройки программы : cabac=1 / ref=5 / deblock=1:-3:-3 / analyse=0x3:0x133 / me=umh / subme=7 / me-prepass=0 / brdo=1 / mixed_ref=1 / me_range=16 / chroma_me=1 / trellis=0 / 8x8dct=1 / cqm=2 / deadzone=6,4 / chroma_qp_offset=0 / threads=3 / nr=0 / decimate=1 / mbaff=0 / bframes=3 / b_pyramid=1 / b_adapt=1 / b_bias=0 / direct=1 / wpredb=1 / bime=1 / keyint=250 / keyint_min=25 / scenecut=40(pre) / rc=2pass / bitrate=8462 / ratetol=1.0 / rceq='blurCplx^(1-qComp)' / qcomp=1.00 / qpmin=10 / qpmax=51 / qpstep=4 / cplxblur=20.0 / qblur=0.5 / ip_ratio=1.40 / pb_ratio=1.30 / aq=1:0.5:13.0
Язык : English
Default : Да
Forced : Нет

Аудио
Идентификатор : 2
Формат : AC-3
Формат/Информация : Audio Coding 3
Расширение режима : CM (complete main)
Параметр Endianness формата : Big
Идентификатор кодека : A_AC3
Продолжительность : 2 ч. 3 м.
Вид битрейта : Постоянный
Битрейт : 384 Кбит/сек
Каналы : 6 каналов
Расположение каналов : Front: L C R, Side: L R, LFE
Частота : 48,0 КГц
Битовая глубина : 16 бит
Метод сжатия : С потерями
Размер потока : 338 Мбайт (4%)
Заголовок : AC3 2.0 192k
Язык : Russian
Default : Да
Forced : Нет

Текст #1
Идентификатор : 3
Формат : UTF-8
Идентификатор кодека : S_TEXT/UTF8
Идентификатор кодека/Информация : UTF-8 Plain Text
Заголовок : Russian
Язык : Russian
Default : Да
Forced : Нет

Текст #2
Идентификатор : 4
Формат : ASS
Идентификатор кодека : S_TEXT/ASS
Идентификатор кодека/Информация : Advanced Sub Station Alpha
Метод сжатия : Без потерь
Заголовок : English
Язык : English
Default : Нет
Forced : Нет

Текст #3
Идентификатор : 5
Формат : ASS
Идентификатор кодека : S_TEXT/ASS
Идентификатор кодека/Информация : Advanced Sub Station Alpha
Метод сжатия : Без потерь
Заголовок : German
Язык : German
Default : Нет
Forced : Нет

pb.wtf



Скачать Человек-слон через торрент http://pic.kartinco.top/images/2/2or8ehxbij.jpg Скачать фильм Человек-слон через торрент бесплантно в хорошем качестве Описание: Это правдивая и печальная история жизни реально существовавшего в 19 веке человека, Джона Меррика, страдавшего редчайшей ... 10 10 7
Info! Золотая раздача, скачанное не засчитывается.
Торрент: Зарегистрирован [2013-05-05 03:24] · скачан: 26 раз
Статус: √ проверено
Размер: 7.62 GB
Как cкачать? Как скачать Человек-слон через торрент | qTorrent

28-11-2019 20:33  

Отключить всю рекламу на сайте

05-05-2013 05:27 Человек-слон Скачать торрент  

Рип поменьше стоит ждать?pb.wtf



05-05-2013 06:44 Человек-слон Скачать торрент  

Borisok84 писал(а):

Рип поменьше стоит ждать?

сегодня морочиться не буду,завтра только,если вспомню pb.wtf



    Дорогой пользователь! Огромная просьба, поблагодарите релизера, оцените раздачу и оставьте свои комментарий, если Вы скачали Человек-слон через торрент бесплатно! Внесите свою лепту в развитие PiratBit!
    Комментировать посты могут только пользователи прошедшие не сложную регистрацию
    Показать сообщения:    

    Человек-слон через торрент
    Скачать бесплатно Человек-слон
    Человек-слон скачать торрент
    Человек-слон смотреть онлайн
    Cкачать фильм Человек-слон бесплатно
    Человек-слон скачать торрент в хорошем качестве
    Человек-слон смотреть онлайн бесплатно в хорошем качестве


    Вы не можете начинать темы
    Вы не можете отвечать на сообщения
    Вы не можете редактировать свои сообщения
    Вы не можете удалять свои сообщения
    Вы не можете голосовать в опросах
    Вы не можете прикреплять файлы к сообщениям
    Вы можете скачивать файлы