2 сезон

iTunes

1 сезон

1

iTunes

iTunes

iTunes

1 сезон

RePack

30

ИГРА 18+

pack

ВАЖНО

!!Акция!!

Alien_RageХит недели

RePack

MK11
pack

Забери бонус

RePack

jed

!!Акция!!

Alien_Rage

RePack

fifa19

RePack

Assassins Creed: Odyssey

RePack

NEED FOR SPEED™ PAYBACK

4 сезон

9 сезон

Бесстыжие 9 сезон

Все сериалы

все сериалы на PB.wtf

RePack

FAR CRY 5
  

Холостячки / Bachelorette (Лесли Хэдланд) [2012 г., комедия, мелодрама, BDRip 720p, Дубляж, лицензия] pb.wtf

Холостячки через торрент pb.wtf

Размер: 4.64 GB | Добавлен: 7 лет 5 мес. назад | Торрент скачан:60 раз
Скачать  

05-05-2013 08:28 Холостячки Скачать торрент  



Холостячки / Bachelorette

«Комедия о том, как плохие девочки получают всё»

Год выпуска: 2012
Страна: США
Жанр: комедия, мелодрама,
Продолжительность: 01:27:03
Перевод: Дубляж, Лицензия
Субтитры: Нет

Режиссер: Лесли Хэдланд
Продюссер: Брайс Даль Фарра, Клод Даль Фарра, Джессика Элбаум
Сценарий: Лесли Хэдланд

Бюджет: $3 000 000
Премьера в мире: 23 января 2012



Мировой рейтинг IMDB 5.20 (16 250)



В ролях: Кирстен Данст, Айла Фишер, Лиззи Каплан, Джеймс Марсден, Кайл Борнхаймер, Ребел Уилсон, Адам Скотт, Пол Корнинг, Эндрю Рэннеллс, Анна Роуз Хопкинс,

Описание: Три симпатичные и острые на язык незамужние подруги приезжают на свадьбу бывшей одноклассницы-толстушки и… случайно портят впечатляющее своими размерами подвенечное платье невесты. А ведь завтра ей идти к алтарю! За одну ночь холостячкам предстоит проделать головокружительное путешествие по стрип-клубам, туалетным комнатам и мужским спальням во имя спасения свадьбы той, которую они терпеть не могут.

Качество: BDRip 720p
Формат: MKV
Видео кодек: H.264
Аудио кодек: AC3/DTS
Видео: 1280x536 (2.35:1), 24.000 fps, 5 678 Kbps (0.345 bit/pixel)
Аудио#1: AC-3, 48.0 KHz, 6 ch, 448 Kbps, CBR (Russian)
Аудио#2: DTS, 48.0 KHz, 6 ch, 1 510 Kbps, CBR (English)
Субтитры: English








Общее
Уникальный идентификатор : 191382654796290476694708485124996541492 (0x8FFAF564E63432498D3FA746A8A92C34)
Полное имя : E:Холостячки.2012.BDRip.720p.mkv
Формат : Matroska
Версия формата : Version 2
Размер файла : 4,64 Гбайт
Продолжительность : 1 ч. 27 м.
Общий поток : 7635 Кбит/сек
Название фильма : Холостячки
Дата кодирования : UTC 2013-02-01 16:11:48
Программа кодирования : mkvmerge v4.9.1 ('Ich will') сборка от Jul 11 2011 23:53:15
Библиотека кодирования : libebml v1.2.1 + libmatroska v1.1.1

Видео
Идентификатор : 1
Формат : AVC
Формат/Информация : Advanced Video Codec
Профиль формата : High@L4.1
Параметр CABAC формата : Да
Параметр ReFrames формата : 5 кадров
Идентификатор кодека : V_MPEG4/ISO/AVC
Продолжительность : 1 ч. 27 м.
Битрейт : 5678 Кбит/сек
Ширина : 1280 пикселей
Высота : 536 пикселей
Соотношение сторон : 2,40:1
Режим частоты кадров : Постоянный
Частота кадров : 24,000 кадра/сек
Цветовое пространство : YUV
Субдискретизация насыщенности : 4:2:0
Битовая глубина : 8 бит
Тип развёртки : Прогрессивная
Бит/(Пиксели*Кадры) : 0.345
Размер потока : 3,36 Гбайт (72%)
Заголовок : Bachelorette.2012.LIMITED.720p.BluRay.X264-AMIABLE
Библиотека кодирования : x264 core 129 r2245 bc13772
Настройки программы : cabac=1 / ref=5 / deblock=1:0:0 / analyse=0x3:0x113 / me=umh / subme=8 / psy=1 / psy_rd=1.00:0.00 / mixed_ref=1 / me_range=16 / chroma_me=1 / trellis=1 / 8x8dct=1 / cqm=0 / deadzone=21,11 / fast_pskip=1 / chroma_qp_offset=-2 / threads=6 / lookahead_threads=1 / sliced_threads=0 / nr=0 / decimate=1 / interlaced=0 / bluray_compat=0 / constrained_intra=0 / bframes=3 / b_pyramid=2 / b_adapt=2 / b_bias=0 / direct=3 / weightb=1 / open_gop=0 / weightp=2 / keyint=240 / keyint_min=24 / scenecut=40 / intra_refresh=0 / rc_lookahead=50 / rc=2pass / mbtree=1 / bitrate=5678 / ratetol=1.0 / qcomp=0.60 / qpmin=0 / qpmax=69 / qpstep=4 / cplxblur=20.0 / qblur=0.5 / ip_ratio=1.40 / aq=1:1.00
Язык : English
Default : Да
Forced : Да

Аудио #1
Идентификатор : 2
Формат : AC-3
Формат/Информация : Audio Coding 3
Расширение режима : CM (complete main)
Параметр Endianness формата : Big
Идентификатор кодека : A_AC3
Продолжительность : 1 ч. 27 м.
Вид битрейта : Постоянный
Битрейт : 448 Кбит/сек
Каналы : 6 каналов
Расположение каналов : Front: L C R, Side: L R, LFE
Частота : 48,0 КГц
Битовая глубина : 16 бит
Метод сжатия : С потерями
Размер потока : 279 Мбайт (6%)
Заголовок : DD 5.1 @ 448 kbps - Dub, R5
Язык : Russian
Default : Да
Forced : Да

Аудио #2
Идентификатор : 3
Формат : DTS
Формат/Информация : Digital Theater Systems
Режим : 16
Параметр Endianness формата : Big
Идентификатор кодека : A_DTS
Продолжительность : 1 ч. 27 м.
Вид битрейта : Постоянный
Битрейт : 1509 Кбит/сек
Каналы : 6 каналов
Расположение каналов : Front: L C R, Side: L R, LFE
Частота : 48,0 КГц
Битовая глубина : 24 бит
Метод сжатия : С потерями
Размер потока : 940 Мбайт (20%)
Заголовок : DTS 5.1 @ 1536 kbps
Язык : English
Default : Нет
Forced : Нет

Текст
Идентификатор : 4
Формат : UTF-8
Идентификатор кодека : S_TEXT/UTF8
Идентификатор кодека/Информация : UTF-8 Plain Text
Язык : English
Default : Нет
Forced : Нет

Меню
00:00:00.000 : en:00:00:00.000
00:11:41.208 : en:00:11:41.208
00:19:02.625 : en:00:19:02.625
00:30:54.208 : en:00:30:54.208
00:40:34.667 : en:00:40:34.667
00:55:15.708 : en:00:55:15.708
01:11:12.417 : en:01:11:12.417
01:22:17.250 : en:01:22:17.250


Холостячки скачать торрент






pb.wtf



Скачать Холостячки через торрент http://pic.kartinco.top/images/2/shn6947qii.png Скачать фильм Холостячки через торрент бесплантно в хорошем качестве Описание: Три симпатичные и острые на язык незамужние подруги приезжают на свадьбу бывшей одноклассницы-толстушки и… случайно портят ... 10 10 6
Info! Золотая раздача, скачанное не засчитывается.
Торрент: Зарегистрирован [2013-05-05 08:28] · скачан: 60 раз
Статус: √ проверено
Размер: 4.64 GB
Как cкачать? Как скачать Холостячки через торрент | qTorrent

% Раздел Тема Автор DL S | L
Фильмы 2012 [ 1.87 GB ] Холостячки / Bachelorette [2012 Романтическая BDRip DUB лицензия + MVO + Оригинал] bogyn Скачать
1 | 0
Фильмы 2012 [ 2.15 GB ] Холостячки / Bachelorette [2012. DUB BDRip-AVC] от R.G.RealMT Страна Скачать
1 | 0
Фильмы 2012 [ 699 MB ] Холостячки / Bachelorette [2012 DVDRip] DUB Oдин 777 Скачать
1 | 0
Фильмы 2012 [ 1.44 GB ] Холостячки / Bachelorette [2012 HDRip DUB лицензия] gnev78 Скачать
1 | 0
Фильмы (DVD фильмы) [ 3.34 GB ] Холостячки / Bachelorette [2012 DVD5] R5 voovaz Скачать
1 | 0
Порно фильмы с сюжетом [ 1.07 GB ] Вечеринка Холостячек / Enterrement de vie de jeune fille aux Caraïbes/Bachelorette Party [2012 Group sex Allsex Oral sex Anal sex FFM. SiteRip] Pir@tya2010 Скачать
1 | 0

28-11-2019 20:33  

Отключить всю рекламу на сайте

    Дорогой пользователь! Огромная просьба, поблагодарите релизера, оцените раздачу и оставьте свои комментарий, если Вы скачали Холостячки через торрент бесплатно! Внесите свою лепту в развитие PiratBit!
    Комментировать посты могут только пользователи прошедшие не сложную регистрацию
    Показать сообщения:    

    Холостячки через торрент
    Скачать бесплатно Холостячки
    Холостячки скачать торрент
    Холостячки смотреть онлайн
    Cкачать фильм Холостячки бесплатно
    Холостячки скачать торрент в хорошем качестве
    Холостячки смотреть онлайн бесплатно в хорошем качестве


    Вы не можете начинать темы
    Вы не можете отвечать на сообщения
    Вы не можете редактировать свои сообщения
    Вы не можете удалять свои сообщения
    Вы не можете голосовать в опросах
    Вы не можете прикреплять файлы к сообщениям
    Вы можете скачивать файлы