Ссылка на приватное зеркало нашего сайта всего за 1$. Внимание количество ограничено!!!

2 сезон

iTunes

1 сезон

1

iTunes

iTunes

iTunes

1 сезон

RePack

30

ИГРА 18+

pack

ВАЖНО

!!Акция!!

Alien_RageХит недели

RePack

MK11
pack

Забери бонус

RePack

jed

!!Акция!!

Alien_Rage

RePack

fifa19

RePack

Assassins Creed: Odyssey

RePack

NEED FOR SPEED™ PAYBACK

4 сезон

9 сезон

Бесстыжие 9 сезон

Все сериалы

все сериалы на PB.wtf

RePack

FAR CRY 5
  

Спасти рядового Райана / Saving Private Ryan (Стивен Спилберг) [1998 г., Военный, Боевик, Драма, BDRip 1080p, Дубляж] pb.wtf

Спасти рядового Райана через торрент pb.wtf

Размер: 28.18 GB | Добавлен: 7 лет 5 мес. назад | Торрент скачан:70 раз
Скачать  

05-05-2013 10:53 Спасти рядового Райана Скачать торрент  

Спасти рядового Райана / Saving Private Ryan

Год выпуска: 1998
Страна: США
Жанр: Военный, Боевик, Драма
Продолжительность: 02:49:18
Перевод: Дубляж
Тип релиза: Пиратка
Субтитры: Есть

Режиссер: Стивен Спилберг
Продюссер: Йен Брюс, Марк Гордон, Гари Левинсон
Сценарий: Роберт Родат

Бюджет: $70 000 000
Премьера в мире: 24 июля 1998



В ролях: Том Хэнкс, Том Сайзмор, Эдвард Бернс, Бэрри Пеппер, Адам Голдберг, Вин Дизель, Джованни Рибизи, Джереми Дейвис, Мэтт Дэймон, Тед Дансон

Описание: Капитан Джон Миллер получает тяжелое задание. Вместе с отрядом из восьми человек Миллер должен отправиться в тыл врага на поиски рядового Джеймса Райана, три родных брата которого почти одновременно погибли на полях сражений. Командование приняло решение демобилизовать Райана и отправить его на родину к безутешной матери. Но для того, чтобы найти и спасти солдата, крошечному отряду придется пройти через все круги ада…

Качество: BDRip 1080p
Формат: MKV
Видео кодек: H.264
Аудио кодек: DTS
Видео: 1920x1038, 23.976 fps, High@L4.1, 18700 kbps
Аудио#1: Русский, DTS 5.1 754 kbps 48 kHz – многоголосый
Аудио#2: Русский, DD 5.1 448 kbps 48 kHz – дублированный [Позитив-Мультимедиа]
Аудио#3: Русский, DD 5.1 448 kbps 48 kHz – многоголосый [Позитив-Мультимедиа]
Аудио#4: Русский, DTS 5.1 1510 kbps 48 kHz – многоголосый [Карусель]
Аудио#5: Английский DTS 5.1 1510 kbps 48 kHz
[/URL]
[/URL]
[/URL]
[/URL]
[/URL]
[/URL]
[/URL]
Общее
Полное имя : J:Спасти рядового Райана.BDRip-1080p.mkv
Формат : Matroska
Версия формата : Version 2
Размер файла : 28,2 Гбайт
Продолжительность : 2 ч. 49 м.
Общий поток : 23,8 Мбит/сек
Название фильма : Saving Private Ryan
Дата кодирования : UTC 2010-04-12 16:49:05
Программа кодирования : mkvmerge v2.9.7 ('Tenderness') built on Jul 5 2009 13:26:28
Библиотека кодирования : libebml v0.7.8 + libmatroska v0.8.1

Видео
Идентификатор : 1
Формат : AVC
Формат/Информация : Advanced Video Codec
Профиль формата : High@L4.1
Параметр CABAC формата : Да
Параметр ReFrames формата : 4 кадра
Идентификатор кодека : V_MPEG4/ISO/AVC
Продолжительность : 2 ч. 49 м.
Битрейт : 19,0 Мбит/сек
Ширина : 1920 пикселей
Высота : 1038 пикселей
Соотношение сторон : 1,85:1
Режим частоты кадров : Постоянный
Частота кадров : 23,976 кадра/сек
Цветовое пространство : YUV
Субдискретизация насыщенности : 4:2:0
Битовая глубина : 8 бит
Тип развёртки : Прогрессивная
Бит/(Пиксели*Кадры) : 0.398
Размер потока : 22,1 Гбайт (78%)
Заголовок : Saving Private Ryan
Библиотека кодирования : x264 core 92 r1510 33d382a
Язык : English
Default : Да
Forced : Нет

Аудио #1
Идентификатор : 2
Формат : DTS
Формат/Информация : Digital Theater Systems
Режим : 16
Параметр Endianness формата : Big
Идентификатор кодека : A_DTS
Продолжительность : 2 ч. 49 м.
Вид битрейта : Постоянный
Битрейт : 755 Кбит/сек
Каналы : 6 каналов
Расположение каналов : Front: L C R, Side: L R, LFE
Частота : 48,0 КГц
Битовая глубина : 24 бит
Метод сжатия : С потерями
Размер потока : 915 Мбайт (3%)
Заголовок : RUS DTS 5.1 mvo (Superbit)
Язык : Russian
Default : Да
Forced : Нет

Аудио #2
Идентификатор : 3
Формат : AC-3
Формат/Информация : Audio Coding 3
Расширение режима : CM (complete main)
Параметр Endianness формата : Big
Идентификатор кодека : A_AC3
Продолжительность : 2 ч. 49 м.
Вид битрейта : Постоянный
Битрейт : 448 Кбит/сек
Каналы : 6 каналов
Расположение каналов : Front: L C R, Side: L R, LFE
Частота : 48,0 КГц
Битовая глубина : 16 бит
Метод сжатия : С потерями
Размер потока : 543 Мбайт (2%)
Заголовок : RUS DD 5.1 dubb (Pozitiv)
Язык : Russian
Default : Нет
Forced : Нет

Аудио #3
Идентификатор : 4
Формат : AC-3
Формат/Информация : Audio Coding 3
Расширение режима : CM (complete main)
Параметр Endianness формата : Big
Идентификатор кодека : A_AC3
Продолжительность : 2 ч. 49 м.
Вид битрейта : Постоянный
Битрейт : 448 Кбит/сек
Каналы : 6 каналов
Расположение каналов : Front: L C R, Side: L R, LFE
Частота : 48,0 КГц
Битовая глубина : 16 бит
Метод сжатия : С потерями
Размер потока : 543 Мбайт (2%)
Заголовок : RUS DD 5.1 mvo (Pozitiv)
Язык : Russian
Default : Нет
Forced : Нет

Аудио #4
Идентификатор : 5
Формат : DTS
Формат/Информация : Digital Theater Systems
Режим : 16
Параметр Endianness формата : Big
Идентификатор кодека : A_DTS
Продолжительность : 2 ч. 49 м.
Вид битрейта : Постоянный
Битрейт : 1509 Кбит/сек
Каналы : 6 каналов
Расположение каналов : Front: L C R, Side: L R, LFE
Частота : 48,0 КГц
Битовая глубина : 24 бит
Метод сжатия : С потерями
Задержка видео : 43 с.
Размер потока : 1,79 Гбайт (6%)
Заголовок : RUS DTS 5.1 mvo (Karusel)
Язык : Russian
Default : Нет
Forced : Нет

Аудио #5
Идентификатор : 6
Формат : DTS
Формат/Информация : Digital Theater Systems
Режим : 16
Параметр Endianness формата : Big
Идентификатор кодека : A_DTS
Продолжительность : 2 ч. 49 м.
Вид битрейта : Постоянный
Битрейт : 1509 Кбит/сек
Каналы : 6 каналов
Расположение каналов : Front: L C R, Side: L R, LFE
Частота : 48,0 КГц
Битовая глубина : 24 бит
Метод сжатия : С потерями
Размер потока : 1,79 Гбайт (6%)
Заголовок : ENG DTS 5.1 orig
Язык : English
Default : Нет
Forced : Нет

Текст #1
Идентификатор : 7
Формат : UTF-8
Идентификатор кодека : S_TEXT/UTF8
Идентификатор кодека/Информация : UTF-8 Plain Text
Язык : Russian
Default : Нет
Forced : Нет

Текст #2
Идентификатор : 8
Формат : UTF-8
Идентификатор кодека : S_TEXT/UTF8
Идентификатор кодека/Информация : UTF-8 Plain Text
Язык : English
Default : Нет
Forced : Нет

Текст #3
Идентификатор : 9
Формат : UTF-8
Идентификатор кодека : S_TEXT/UTF8
Идентификатор кодека/Информация : UTF-8 Plain Text
Язык : French
Default : Нет
Forced : Нет

Текст #4
Идентификатор : 10
Формат : UTF-8
Идентификатор кодека : S_TEXT/UTF8
Идентификатор кодека/Информация : UTF-8 Plain Text
Язык : German
Default : Нет
Forced : Нет

Меню
00:00:00.000 : :Memorial
00:04:31.438 : :Omaha Beach
00:13:48.077 : :Rallying
00:18:57.887 : :Breakthrough
00:26:54.488 : :Letters
00:36:12.796 : :A Public Relations Mission
00:45:48.537 : :Pool
00:57:40.457 : :Private James Ryan
01:05:27.340 : :Choices
01:13:46.839 : :Fubar
01:17:43.075 : :Dog-Tags
01:24:06.083 : :Radar Station
01:35:30.725 : :Big Mystery
01:46:44.189 : :One Decent Thing
01:59:36.544 : :Piaf
02:07:26.597 : :Born Lucky
02:17:12.599 : :Ammo
02:26:55.390 : :The Alamo
02:32:43.738 : :The Bridge
02:42:39.917 : :Duty Roster
pb.wtf



Скачать Спасти рядового Райана через торрент http://i2.fastpic.ru/big/2010/0321/2c/3031004f2076891450533a255fd8722c.png Скачать фильм Спасти рядового Райана через торрент бесплантно в хорошем качестве Описание: Капитан Джон Миллер получает тяжелое задание. Вместе с отрядом из восьми человек Миллер должен отправиться в тыл врага на поиски ... 10 10 18
Info! Золотая раздача, скачанное не засчитывается.
Торрент: Зарегистрирован [2013-05-05 10:53] · скачан: 70 раз
Статус: √ проверено
Размер: 28.18 GB
Как cкачать? Как скачать Спасти рядового Райана через торрент | qTorrent

% Раздел Тема Автор DL S | L
Ultra HD (UHD: 2K, 4K, 8K) — видео сверхвысокой чёткости [ 69.31 GB ] Спасти рядового Райана / Saving Private Ryan [1998 военный UHD BDRemux 2160p] DUB [Dolby Vision TV] sheker187 Скачать
1 | 0
Ultra HD (UHD: 2K, 4K, 8K) — видео сверхвысокой чёткости [ 45.69 GB ] Спасти рядового Райана / Saving Private Ryan [1998 военный история реальные события UHD BDRip 2160p] DUB + 3xMVO + 3xAVO + 2xMVO sheker187 Скачать
1 | 0
Ultra HD (UHD: 2K, 4K, 8K) — видео сверхвысокой чёткости [ 117.14 GB ] Спасти рядового Райана / Saving Private Ryan [1998 военный UHD BDRemux 2160p] DUB + 4xMVO + 4xAVO + 2xMVO [HDR + Dolby Vision] sheker187 Скачать
1 | 0
Ultra HD (UHD: 2K, 4K, 8K) — видео сверхвысокой чёткости [ 104.15 GB ] Спасти рядового Райана / Saving Private Ryan [1998 военный история реальные события UHD BDRemux 2160p] DUB+5xMVO+2xMVO +5xAVO bober100 Скачать
1 | 0
Фильмы (Blu-ray, BD-Remux, HDDVD) [ 52.85 GB ] Спасти рядового Райана / Saving Private Ryan [1998 военный BD-Remux ] Jack_orsk Скачать
1 | 0
Фильмы (HD 720p, 1080p) (48-60 fps) [ 45.04 GB ] Спасти рядового Райана / Saving Private Ryan [1998 военный BDRip 1080p [ ][hand made 60fps] flatro1 Скачать
2 | 0
Фильмы [HD 720p, 1080p] (Хороший звук DUB, MVO) [ 28.8 GB ] Спасти рядового Райана / Saving Private Ryan [1998 военный BDRip 1080p] DUB 6xMVO 4xAVO _denis_100 Скачать
1 | 0

28-11-2019 20:33  

Отключить всю рекламу на сайте

05-05-2013 11:12 Спасти рядового Райана Скачать торрент  

Отличный фильм!pb.wtf



05-05-2013 14:51 Спасти рядового Райана Скачать торрент  

Фильм просто супер. Как раз к 9 мая! pb.wtf



05-05-2013 15:29 Спасти рядового Райана Скачать торрент  

МИКЛУХА ДЖЕКС писал(а):

Фильм просто супер. Как раз к 9 мая!

Вот так ляпнул. ЛОЛ)))pb.wtf



05-05-2013 16:33 Спасти рядового Райана Скачать торрент  

не может кино 28 гигов веситьpb.wtf



05-05-2013 16:38 Спасти рядового Райана Скачать торрент  

tp

Да ну!!! У меня вот фильм весит 76.82 GB всё братиш зависит от качества фильма!!!pb.wtf



05-05-2013 17:20 Спасти рядового Райана Скачать торрент  

хоть этот фильм 100gb будет весить,он того стоит очень даже как стоит!!!!!!pb.wtf



06-05-2013 14:23 Спасти рядового Райана Скачать торрент  

АВТОРУ РЕСПЕКТ !!! Давно искал в качестве........pb.wtf



06-05-2013 20:58 Спасти рядового Райана Скачать торрент  

666gtr666 писал(а):

МИКЛУХА ДЖЕКС писал(а):

Фильм просто супер. Как раз к 9 мая!

Вот так ляпнул. ЛОЛ)))

Значит 8 марта посмотришь :pleasantry:pb.wtf



13-05-2013 21:22 Спасти рядового Райана Скачать торрент  

зерно на экране...... чё за хреньpb.wtf



02-10-2014 11:17 Спасти рядового Райана Скачать торрент  

Эх, качнуть бы! Раздайте, друзья!pb.wtf



01-08-2016 19:25 Спасти рядового Райана Скачать торрент  

спасибо! раздайте плс!!!!!!!1111pb.wtf



    Дорогой пользователь! Огромная просьба, поблагодарите релизера, оцените раздачу и оставьте свои комментарий, если Вы скачали Спасти рядового Райана через торрент бесплатно! Внесите свою лепту в развитие PiratBit!
    Комментировать посты могут только пользователи прошедшие не сложную регистрацию
    Показать сообщения:    

    Спасти рядового Райана через торрент
    Скачать бесплатно Спасти рядового Райана
    Спасти рядового Райана скачать торрент
    Спасти рядового Райана смотреть онлайн
    Cкачать фильм Спасти рядового Райана бесплатно
    Спасти рядового Райана скачать торрент в хорошем качестве
    Спасти рядового Райана смотреть онлайн бесплатно в хорошем качестве


    Вы не можете начинать темы
    Вы не можете отвечать на сообщения
    Вы не можете редактировать свои сообщения
    Вы не можете удалять свои сообщения
    Вы не можете голосовать в опросах
    Вы не можете прикреплять файлы к сообщениям
    Вы можете скачивать файлы