2 сезон

iTunes

MVO

1

2 сезон

iTunes

iTunes

1 сезон

RePack

30

Ultimate

ВАЖНО

ИГРА 18+

pack

RePack

MK11
pack

Легкие деньги

RePack

jed

RePack

fifa19

RePack

RDR2

RePack

NEED FOR SPEED™ PAYBACK

4 сезон

9 сезон

Бесстыжие 9 сезон

Все сериалы

все сериалы на PB.wtf

RePack

FAR CRY 5

Anonymous, доброе утро, мы не успеваем собрать деньги на оплату серверов за декабрь и январь, помогите нам пожалуйста в это трудное время. В качестве благодарности мы отключим Вам всю рекламу на сайте (укажите свой ник в строку Ваше имя)!

×
  
Magnet ссылка

Морской пехотинец: Тыл / The Marine: Homefront (Скотт Вайпер / Scott Wiper) [2013, США, боевик, HDRip] MVO (R5) pb.wtf

Морской пехотинец: Тыл через торрент pb.wtf

Размер: 745 MB | Добавлен: 7 лет 8 мес. назад | Торрент скачан:529 раз
Скачать  

07-05-2013 04:29 Морской пехотинец: Тыл Скачать торрент  

Морской пехотинец: Тыл / The Marine: Homefront
Страна: США
Студия: WWE Studios, Zoic Studios, Furious FX
Жанр: боевик
Год выпуска: 2013
Продолжительность: 01:30:09
Перевод: Профессиональный (многоголосый закадровый) R5
Cубтитры: нет

Режиссер: Скотт Вайпер / Scott Wiper

В ролях: Эшли Белл, Нил МакДонаф, Майкл Эклунд, Майк Мизанин, Камилль Салливан, Алекс Паунович, Риз Александр, Джеффри Баллард, Джаред Кисо, Тич Грант

Описание: Джим едет в родной городок всего на две недели. Он морской пехотинец и у него долгожданный отпуск. Родители давно умерли и его в Бриджтоне ждут только сёстры - Аманда и Лили. Но не успел Джим насладиться отдыхом, как и в тылу пришлось применять своё боевое мастерство: уединившиеся Лили и её парень нечаянно оказались свидетелями разборки и попали в плен к невменяемому "борцу" за справедливость...

Качество видео: HDRip
Контейнер: AVI
Видео кодек: XviD
Аудио кодек: MP3
Видео: 656x368 (1.78:1), 23.976 fps, XviD build 73 ~1018 kbps avg, 0.18 bit/pixel
Аудио: 48 kHz, MPEG Layer 3, 2 ch, ~128.00 kbps avg
Раздача от:
D:Morskoj.pehotinec.Tyl_HDRip.[YTN] by dexter lex.avi
General
Complete name : D:Morskoj.pehotinec.Tyl_HDRip.[YTN] by dexter lex.avi
Format : AVI
Format/Info : Audio Video Interleave
File size : 745 MiB
Duration : 1h 30mn
Overall bit rate : 1 156 Kbps
Writing application : VirtualDubMod 1.5.10.3 | www.virtualdub-fr.org || (build 2550/release)
Writing library : VirtualDubMod build 2550/release
Video #0
ID : 0
Format : MPEG-4 Visual
Format profile : Advanced Simple@L5
Format settings, BVOP : 1
Format settings, QPel : No
Format settings, GMC : No warppoints
Format settings, Matrix : Custom
Codec ID : XVID
Codec ID/Hint : XviD
Duration : 1h 30mn
Bit rate : 1 018 Kbps
Width : 656 pixels
Height : 368 pixels
Display aspect ratio : 1.78:1
Frame rate : 23.976 fps
Color space : YUV
Chroma subsampling : 4:2:0
Bit depth : 8 bits
Scan type : Progressive
Compression mode : Lossy
Bits/(Pixel*Frame) : 0.176
Stream size : 657 MiB (88%)
Writing library : XviD 73
Audio #1
ID : 1
Format : MPEG Audio
Format version : Version 1
Format profile : Layer 3
Codec ID : 55
Codec ID/Hint : MP3
Duration : 1h 30mn
Bit rate mode : Constant
Bit rate : 128 Kbps
Channel(s) : 2 channels
Sampling rate : 48.0 KHz
Compression mode : Lossy
Stream size : 82.5 MiB (11%)
Alignment : Aligned on interleaves
Interleave, duration : 42 ms (1.00 video frame)
Interleave, preload duration : 504 ms
Writing library : LAME3.99r
Encoding settings : -m s -V 4 -q 2 -lowpass 17 -b 128
pb.wtf



Скачать Морской пехотинец: Тыл через торрент http://i47.fastpic.ru/big/2013/0418/b8/63bb0e75947918b149ed30e75d7395b8.png Скачать фильм Морской пехотинец: Тыл через торрент бесплантно в хорошем качестве Описание: Джим едет в родной городок всего на две недели. Он морской пехотинец и у него долгожданный отпуск. Родители давно умерли и его в ... 9.6 10 30
Info! Золотая раздача, скачанное не засчитывается.
Торрент: Зарегистрирован [2013-05-07 04:29] · скачан: 529 раз
Статус: √ проверено
Размер: 745 MB
Как cкачать? Как скачать Морской пехотинец: Тыл через торрент | UTorrent

% Раздел Тема Автор DL S | L
Фильмы 2012 [ 1.37 GB ] Морской пехотинец: Тыл / The Marine: Homefront [2012 HDRip] diletant Скачать
1 | 0
Фильмы [HD 720p, 1080p] (Хороший звук DUB, MVO) [ 4.55 GB ] Морской пехотинец: Тыл / The Marine: Homefront [2012 BDRip 720p MVO лицензия] Ke$h@ Скачать
1 | 0
Фильмы (DVD фильмы) [ 6.4 GB ] Морской пехотинец: Тыл / The Marine: Homefront [2013 DVD9] R5 voovaz Скачать
1 | 0
Фильмы без перевода [ 4.36 GB ] Морской пехотинец: Тыл / The Marine: Homefront [2013 BDRip 720p Оригинал] smaster Скачать
1 | 0

28-11-2019 20:33  

Отключить всю рекламу на сайте

05-05-2015 16:22 Морской пехотинец: Тыл Скачать торрент  

4 часть когда будет на других сайтах уже есть давноpb.wtf



    Дорогой пользователь! Огромная просьба, поблагодарите релизера, оцените раздачу и оставьте свои комментарий, если Вы скачали Морской пехотинец: Тыл через торрент бесплатно! Внесите свою лепту в развитие PiratBit!
    Комментировать посты могут только пользователи прошедшие не сложную регистрацию
    Показать сообщения:    

    Морской пехотинец: Тыл через торрент
    Скачать бесплатно Морской пехотинец: Тыл
    Морской пехотинец: Тыл скачать торрент
    Морской пехотинец: Тыл смотреть онлайн
    Cкачать фильм Морской пехотинец: Тыл бесплатно
    Морской пехотинец: Тыл скачать торрент в хорошем качестве
    Морской пехотинец: Тыл смотреть онлайн бесплатно в хорошем качестве


    Вы не можете начинать темы
    Вы не можете отвечать на сообщения
    Вы не можете редактировать свои сообщения
    Вы не можете удалять свои сообщения
    Вы не можете голосовать в опросах
    Вы не можете прикреплять файлы к сообщениям
    Вы можете скачивать файлы