2 сезон

iTunes

MVO

1

2 сезон

iTunes

iTunes

1 сезон

RePack

30

Новинка

ВАЖНО

ИГРА 18+

pack

RePack

MK11
pack

Легкие деньги

RePack

jed

RePack

fifa19

RePack

RDR2

RePack

NEED FOR SPEED™ PAYBACK

4 сезон

9 сезон

Бесстыжие 9 сезон

Все сериалы

все сериалы на PB.wtf

RePack

FAR CRY 5

Anonymous, добрый день, мы не успеваем собрать деньги на оплату серверов за декабрь и январь, помогите нам пожалуйста в это трудное время. В качестве благодарности мы отключим Вам всю рекламу на сайте (укажите свой ник в строку Ваше имя)!

×
  
Magnet ссылка

Земля из космоса / Earth from space (Майкл Кениг) [2013 г., Документальный. HDTVRip от R.G.RealMT] pb.wtf

Земля из космоса через торрент pb.wtf

Размер: 1.8 GB | Добавлен: 7 лет 8 мес. назад | Торрент скачан:343 раза
Скачать  

07-05-2013 11:14 Земля из космоса Скачать торрент  

Земля из космоса / Earth from space

Год выпуска: 2013
Страна: США
Студия: Fly Over, NASA
Жанр: Документальный, научный-популярный
Продолжительность: 01:52:04
Перевод: Авторский (одноголосый закадровый)
Русские субтитры: нет

Режиссер: Майкл Кениг

Описание: Земля из космоса приглашает вас на эпические поиски обнаружения невидимых сил и процессов, которые поддерживают жизнь на нашей планете и впервые вы увидите их в действии в их естественной среде в ярких деталях. Эти поистине уникальные изображения будут изучать глубочайшие тайны существования, вызвав глубокие вопросы и сложные старые предположения о том, как работает система Земли.

Качество: HDTVRip
Формат:AVI
Видео кодек: XviD
Аудио кодек: MP3
Видео: 16:9, 2099 Кбит/сек, 720x400, 29,970 кадров/сек
Аудио: MP3 , 2 канала, 192 Кбит/сек, 48,0 КГц
Общее
Полное имя : D:NOVA. Earth from Space.[R.G.RealMT].avi
Формат : AVI
Формат/Информация : Audio Video Interleave
Размер файла : 1,80 Гбайт
Продолжительность : 1 ч. 52 м.
Общий поток : 2303 Кбит/сек
Программа кодирования : VirtualDubMod 1.5.10.3 | www.virtualdub-fr.org || (build 2550/release)
Библиотека кодирования : VirtualDubMod build 2550/release

Видео
Идентификатор : 0
Формат : MPEG-4 Visual
Профиль формата : Advanced Simple@L5
Параметр BVOP формата : 2
Параметр QPel формата : Нет
Параметр GMC формата : Без точки перехода
Параметр матрицы формата : Default (H.263)
Режим смешивания : Сжатый битовый поток
Идентификатор кодека : XVID
Идентификатор кодека/Подсказка : XviD
Продолжительность : 1 ч. 52 м.
Битрейт : 2099 Кбит/сек
Ширина : 720 пикселей
Высота : 400 пикселей
Соотношение сторон : 16:9
Частота кадров : 29,970 кадров/сек
Цветовое пространство : YUV
Субдискретизация насыщенности : 4:2:0
Битовая глубина : 8 бит
Тип развёртки : Прогрессивная
Метод сжатия : С потерями
Бит/(Пиксели*Кадры) : 0.243
Размер потока : 1,64 Гбайт (91%)
Библиотека кодирования : XviD 1.2.1 (UTC 2008-12-04)

Аудио
Идентификатор : 1
Формат : MPEG Audio
Версия формата : Version 1
Профиль формата : Layer 3
Идентификатор кодека : 55
Идентификатор кодека/Подсказка : MP3
Продолжительность : 1 ч. 52 м.
Вид битрейта : Постоянный
Битрейт : 192 Кбит/сек
Каналы : 2 канала
Частота : 48,0 КГц
Метод сжатия : С потерями
Размер потока : 154 Мбайт (8%)
Выравнивание : Соединение по промежуткам
Продолжительность промежутка : 33 мс. (1,00 видеокадр)
Время предзагрузки промежутка : 504 мс.
Библиотека кодирования : LAME3.99r
Настройки программы : -m s -V 4 -q 2 -lowpass 18.6 -b 192
Релиз от: pb.wtf



Скачать Земля из космоса через торрент http://s019.radikal.ru/i609/1303/fd/ef134109440d.jpg Скачать фильм Земля из космоса через торрент бесплантно в хорошем качестве Описание: Земля из космоса приглашает вас на эпические поиски обнаружения невидимых сил и процессов, которые поддерживают жизнь на нашей ... 9.8 10 4
Info! Золотая раздача, скачанное не засчитывается.
Торрент: Зарегистрирован [2013-05-07 11:14] · скачан: 343 раз
Статус: √ проверено
Размер: 1.8 GB
Как cкачать? Как скачать Земля из космоса через торрент | UTorrent

% Раздел Тема Автор DL S | L
BBC [ 8.79 GB ] BBC. Земля: Взгляд из космоса / Earth from space / Сезон: 1 / Серии: 1-4 из 4 [2019 Документальный космос природа флора фауна HDTV 1080i] VO bober100 Скачать
3 | 0

28-11-2019 20:33  

Отключить всю рекламу на сайте

    Дорогой пользователь! Огромная просьба, поблагодарите релизера, оцените раздачу и оставьте свои комментарий, если Вы скачали Земля из космоса через торрент бесплатно! Внесите свою лепту в развитие PiratBit!
    Комментировать посты могут только пользователи прошедшие не сложную регистрацию
    Показать сообщения:    

    Земля из космоса через торрент
    Скачать бесплатно Земля из космоса
    Земля из космоса скачать торрент
    Земля из космоса смотреть онлайн
    Cкачать фильм Земля из космоса бесплатно
    Земля из космоса скачать торрент в хорошем качестве
    Земля из космоса смотреть онлайн бесплатно в хорошем качестве


    Вы не можете начинать темы
    Вы не можете отвечать на сообщения
    Вы не можете редактировать свои сообщения
    Вы не можете удалять свои сообщения
    Вы не можете голосовать в опросах
    Вы не можете прикреплять файлы к сообщениям
    Вы можете скачивать файлы