новый адрес пиратбит piratbit
Мега распродажа FORZA HORIZON 4 ULTIMATE+ВСЕ DLC+ОНЛАЙН всего за 499р. 349 руб. (супер цена). Внимание количество ограничено!!!

iTunes

1+1

iTunes

мы

iTunes

1

iTunes

Чернобыль

iTunes

Ральф против интернета

Лицензия

ПШазам

Лицензия

Игра престолов

Лицензия

30
pack

ВАЖНО

!!Акция!!

Alien_RageХит недели

RePack

Resident Evil 21

ИГРА 18+

pack

RePack

Metro:Exodus

!!Акция!!

Alien_Rage

RePack

fifa19

RePack

Assassins Creed: Odyssey

RePack

NEED FOR SPEED™ PAYBACK

3 сезон

9 сезон

Бесстыжие 9 сезон

Все сериалы

все сериалы на PB.wtf

RePack

FAR CRY 5
Ребята, катастрофически не хватает 1900р. для оплаты серверов за Октябрь (всвязи с блокировками трафик упал в 3 раза), 1-2р., выручайте.
  

Александр Маленький (Владимир Фокин) [1981, драма, DVDRip] pb.wtf

Александр Маленький через торрент pb.wtf

Размер: 1.46 GB | Добавлен: 6 лет 6 мес. назад | Торрент скачан:32 раза
Скачать  

08-05-2013 11:24 Александр Маленький Скачать торрент  

Александр Маленький
Страна: СССР
Жанр: драма
Год выпуска: 1981
Продолжительность: 01:34:06
Перевод: Не требуется
Субтиры: нет

Режиссёр: Владимир Фокин

В ролях: Борис Токарев, Юрий Назаров, Михаил Кокшенов, Олаф Шнайдер, Уте Любош, Джерри Вольф, Вальфриде Шмитт, Николай Скоробогатов, Олаф Боддойч, Яна Ленц, Бритт Бауманн, Штефан Март, Андреас Гутовски, Герд Михаэль Хеннеберг, Харальд Вармбрунн, Станислав Молганов, Франк Шенк, Торстен Налеппа

Описание: В основе фильма - подлинный факт. Вторая мировая война окончена, первые мирные дни. В мае 1945 года на освобожденной территории Германии советские солдаты - капитан Игорь Цветов, старшина Василий Хрищанович и рядовой Курыкин - вместе с сотрудницей немецкой газеты Тессой Генцер помогают организовать работу детского дома. Немецкие дети настороженно глядят на солдат в незнакомой форме. Еще скрываются в лесах остатки разбитых нацистких дивизий. А в приют беженцы подбрасывают грудного ребенка. Солдаты называют малыша Александром Маленьким...

Доп. информация:
Сценарий: Валентин Ежов, Владимир Фокин, Ингебург Кретчмар
Оператор: Сергей Филиппов
Художник: Эрих Крюльке
Композитор: Эдуард Артемьев
Награды: приз ВКФ в Таллинне за лучшую режиссуру (1982); серебряная медаль имени Александра Довженко (Владимир Фокин) за создание произведения на героико-патриотическую тему (1982); диплом за лучший игровой полнометражный фильм на II Всесоюзной неделе-смотре работ молодых кинематографистов в Минске (1981); главный приз по разделу художественных фильмов на II фестивале молодых кинематографистов киностудии имени Горького (1982)
Ограничения на просмотр: для любой зрительской аудитории.
Качество видео: DVDRip
Формат видео: AVI
Видео кодек: XviD
Аудио кодек: AC3
Видео: 720x544 (1.32:1), 25 fps, XviD build 73 ~1759 kbps avg, 0.18 bit/pixel
Аудио: 48 kHz, AC3 Dolby Digital, 3/2 (L,C,R,l,r) + LFE ch, 448.00 kbps avg
Раздача от:
D:Alexandr_Malenki_DVDRip_[YTN] by dexter lex.avi
General
Complete name : D:Alexandr_Malenki_DVDRip_[YTN] by dexter lex.avi
Format : AVI
Format/Info : Audio Video Interleave
File size : 1.46 GiB
Duration : 1h 34mn
Overall bit rate : 2 217 Kbps
Writing application : VirtualDubMod 1.5.10.3 | www.virtualdub-fr.org || (build 2550/release)
Writing library : VirtualDubMod build 2550/release
Video #0
ID : 0
Format : MPEG-4 Visual
Format profile : Advanced Simple@L5
Format settings, BVOP : 1
Format settings, QPel : No
Format settings, GMC : No warppoints
Format settings, Matrix : Custom
Codec ID : XVID
Codec ID/Hint : XviD
Duration : 1h 34mn
Bit rate : 1 759 Kbps
Width : 720 pixels
Height : 544 pixels
Display aspect ratio : 1.32:1
Frame rate : 25.000 fps
Color space : YUV
Chroma subsampling : 4:2:0
Bit depth : 8 bits
Scan type : Progressive
Compression mode : Lossy
Bits/(Pixel*Frame) : 0.180
Stream size : 1.16 GiB (79%)
Writing library : XviD 73
Audio #1
ID : 1
Format : AC-3
Format/Info : Audio Coding 3
Mode extension : CM (complete main)
Format settings, Endianness : Big
Codec ID : 2000
Duration : 1h 34mn
Bit rate mode : Constant
Bit rate : 448 Kbps
Channel(s) : 6 channels
Channel positions : Front: L C R, Side: L R, LFE
Sampling rate : 48.0 KHz
Bit depth : 16 bits
Compression mode : Lossy
Stream size : 302 MiB (20%)
Alignment : Split accross interleaves
Interleave, duration : 40 ms (1.00 video frame)
Interleave, preload duration : 500 ms
pb.wtf



Скачать Александр Маленький через торрент http://i47.fastpic.ru/big/2012/1108/ab/28ac66622be5ff9a0a7a903f1411f1ab.jpg Скачать фильм Александр Маленький через торрент бесплантно в хорошем качестве Описание: В основе фильма - подлинный факт. Вторая мировая война окончена, первые мирные дни. В мае 1945 года на освобожденной территории ... 10 10 4
Info! Золотая раздача, скачанное не засчитывается.
Торрент: Зарегистрирован [2013-05-08 11:24] · скачан: 32 раз
Статус: √ проверено
Размер: 1.46 GB
Как cкачать? Как скачать Александр Маленький через торрент | qTorrent

% Раздел Тема Автор DL S | L
Историческая книга [ 229 MB ] Александр Никонов - Апгрейд обезьяны. Большая история маленькой сингулярности [Михайловский Сергей 2007] koba1357 Скачать
1 | 0
Наши сериалы [ 4.37 GB ] Мальчишник или Большой секс в маленьком городе [2006 Сериал ] aspace Скачать
1 | 0


>> Регистрируемся здесь <<






Отзывы и комментарии о схеме читаем и пишем здесь: ---> Отзывы и комментарии о схеме

Новые благодарочки в телеграм довольных пользователей:
скриншот   скриншот   скриншот   скриншот   скриншот

08-05-2013 11:28 Александр Маленький Скачать торрент  

Специально сделал рип, к 9 маю.

P.S Ветеранам войны низкий поклон.pb.wtf



08-05-2013 12:01 Александр Маленький Скачать торрент  

dexter lex писал(а):

Специально сделал рип, к 9 маю.

P.S Ветеранам войны низкий поклон.

И тебе большое Спасибо.pb.wtf



    Дорогой пользователь! Огромная просьба, поблагодарите релизера, оцените раздачу и оставьте свои комментарий, если Вы скачали Александр Маленький через торрент бесплатно! Внесите свою лепту в развитие PiratBit!
    Комментировать посты могут только пользователи прошедшие не сложную регистрацию
    Показать сообщения:    

    Александр Маленький через торрент
    Скачать бесплатно Александр Маленький
    Александр Маленький скачать торрент
    Александр Маленький смотреть онлайн
    Cкачать фильм Александр Маленький бесплатно
    Александр Маленький скачать торрент в хорошем качестве
    Александр Маленький смотреть онлайн бесплатно в хорошем качестве


    Вы не можете начинать темы
    Вы не можете отвечать на сообщения
    Вы не можете редактировать свои сообщения
    Вы не можете удалять свои сообщения
    Вы не можете голосовать в опросах
    Вы не можете прикреплять файлы к сообщениям
    Вы можете скачивать файлы