2 сезон

iTunes

1 сезон

1

iTunes

iTunes

iTunes

1 сезон

RePack

30

ИГРА 18+

pack

ВАЖНО

!!Акция!!

Alien_RageХит недели

RePack

MK11
pack

Забери бонус

RePack

jed

!!Акция!!

Alien_Rage

RePack

fifa19

RePack

Assassins Creed: Odyssey

RePack

NEED FOR SPEED™ PAYBACK

4 сезон

9 сезон

Бесстыжие 9 сезон

Все сериалы

все сериалы на PB.wtf

RePack

FAR CRY 5
  

Туман 2 / Сезон: 2 Серии: 1-4 из 4 (Иван Шурховецкий) [2012, фантастика, драма, военный, DVD9] R5 pb.wtf

Туман 2 через торрент pb.wtf

Размер: 7.65 GB | Добавлен: 7 лет 5 мес. назад | Торрент скачан:248 раз
Скачать  

08-05-2013 17:12 Туман 2 Скачать торрент  


Туман 2
Страна: Россия
Студия: ВВП Альянс
Жанр: фантастика, драма, военный
Год выпуска: 2012
Российская премьера: 4 мая 2012
Дата выхода DVD: 29 апреля 2013
Продолжительность: 02:27:43
Перевод: Оригинал [Лицензия]
Cубтитры: нет
Оригинальная аудиодорожка: русский
Режиссер: Иван Шурховецкий
В ролях: Григорий Калинин, Дмитрий Сергин, Артем Крестников, Иван Лапин, Алексей Марков, Ирина Горбачева, Нодари Джанелидзе, Алексей Митин, Юрий Уткин, Сергей Гарусов...
Описание: Во время празднования Дня Победы герои понимают, что тематическая военная вечеринка сменилась реальностью фашистского тыла. Пятеро парней, известных зрителям по первой части фильма, оказываются в немецкой пивной. В суматохе боя им удается бежать, однако в неразберихе «пришельцы из 21 века» случайно ранят красноармейца по фамилии Кантария. Друзья понимают, что если тот не выживет, то изменится ход истории — кто же будет водружать флаг на Рейхстаг? Теперь их задача — добраться до своих, не дать погибнуть будущему герою войны и, конечно, вернуться обратно в свое время…
Бонусы: нет

Релиз группы:
Качество: DVD9 R5
Формат: DVD-Video
Видео кодек: MPEG2
Аудио кодек: AC3
Видео: PAL 16:9 (720x576(0.677)) MPEG Video, 25,000 кадр/сек, 7014 Кбит/сек
Аудио: Russian (Dolby AC3, 2 ch) 224 Кбит/сек, 48,0 КГц



Title: Tuman.2.2012.DVD9
Size: 7.65 Gb ( 8 017 184,00 KBytes ) - DVD-9
Enabled regions: 1, 2, 3, 4, 5, 6, 7, 8

VTS_01 :
Play Length: 00:00:15
Video: PAL 4:3 (720x576) VBR
Audio:
Not specified (Dolby AC3, 2 ch)

VTS_02 :
Play Length: 00:00:08
Video: PAL 16:9 (720x576) VBR, Auto Letterboxed
Audio:
Not specified (Dolby AC3, 2 ch)

VTS_03 :
Play Length: 00:00:01
Video: PAL 16:9 (720x576) VBR, Auto Letterboxed
Audio:
Russian (Dolby AC3, 2 ch)

VTS_04 :
Play Length: 02:27:43
Video: PAL 16:9 (720x576) VBR, Auto Letterboxed
Audio:
Russian (Dolby AC3, 2 ch)

VTS_05 :
Play Length: 00:00:01
Video: PAL 16:9 (720x576) VBR, Auto Letterboxed
Audio:
Russian (Dolby AC3, 2 ch)

* Menus Information *

VIDEO_TS Menu
Video:
PAL 16:9 (720x576) VBR
Auto Pan&Scan
Audio:
Not specified (LinearPCM, 2 ch)
English Language Unit :
Title Menu

VTS_01 Menu
Video:
PAL 16:9 (720x576) VBR
Auto Letterboxed
Audio:
Not specified (Dolby AC3, 2 ch)
English Language Unit :
Root Menu
Chapter (PTT) Menu

VTS_02 Menu
Video:
NTSC 4:3 (720x480) VBR
Auto Pan&Scan, Auto Letterboxed
English Language Unit :
Root Menu
Chapter (PTT) Menu

VTS_03 Menu
Video:
NTSC 4:3 (720x480) VBR
Auto Pan&Scan, Auto Letterboxed
English Language Unit :
Root Menu
Chapter (PTT) Menu

VTS_04 Menu
Video:
NTSC 4:3 (720x480) VBR
Auto Pan&Scan, Auto Letterboxed
English Language Unit :
Root Menu
Chapter (PTT) Menu

VTS_05 Menu
Video:
NTSC 4:3 (720x480) VBR
Auto Pan&Scan, Auto Letterboxed
English Language Unit :
Root Menu
Chapter (PTT) Menu
Общее
Полное имя : M:Новинки 2013Tuman.2.2012.DVD9VIDEO_TSVTS_04_2.VOB
Формат : MPEG-PS
Размер файла : 1024 Мбайт
Продолжительность : 19 м.
Режим общего битрейта : Переменный
Общий поток : 7385 Кбит/сек

Видео
Идентификатор : 224 (0xE0)
Формат : MPEG Video
Версия формата : Version 2
Профиль формата : Main@Main
Параметр BVOP формата : Да
Параметр матрицы формата : Выборочная
Параметр GOP формата : M=3, N=13
Продолжительность : 19 м.
Вид битрейта : Переменный
Битрейт : 7014 Кбит/сек
Максимальный битрейт : 8500 Кбит/сек
Ширина : 720 пикселей
Высота : 576 пикселей
Соотношение сторон : 16:9
Частота кадров : 25,000 кадров/сек
Стандарт вещания : PAL
Цветовое пространство : YUV
Субдискретизация насыщенности : 4:2:0
Битовая глубина : 8 бит
Тип развёртки : Прогрессивная
Метод сжатия : С потерями
Бит/(Пиксели*Кадры) : 0.677
Размер потока : 972 Мбайт (95%)
Основные цвета : BT.601 PAL
Характеристики трансфера : BT.470 System B, BT.470 System G
Коэффициенты матрицы : BT.601

Аудио
Идентификатор : 189 (0xBD)-128 (0x80)
Формат : AC-3
Формат/Информация : Audio Coding 3
Расширение режима : CM (complete main)
Параметр Endianness формата : Big
Режим смешивания : DVD-Video
Продолжительность : 19 м.
Вид битрейта : Постоянный
Битрейт : 224 Кбит/сек
Каналы : 2 канала
Расположение каналов : Front: L R
Частота : 48,0 КГц
Битовая глубина : 16 бит
Метод сжатия : С потерями
Задержка видео : -408 мс.
Размер потока : 31,1 Мбайт (3%)










pb.wtf



Скачать Туман 2 через торрент http://s019.radikal.ru/i630/1305/4f/e46c7f5a6e43.jpg Скачать фильм Туман 2 через торрент бесплантно в хорошем качестве Описание: Во время празднования Дня Победы герои понимают, что тематическая военная вечеринка сменилась реальностью фашистского тыла. ... 10 10 22
Info! Золотая раздача, скачанное не засчитывается.
Торрент: Зарегистрирован [2013-05-08 17:12] · скачан: 248 раз
Статус: √ проверено
Размер: 7.65 GB
Как cкачать? Как скачать Туман 2 через торрент | qTorrent

28-11-2019 20:33  

Отключить всю рекламу на сайте

09-05-2013 14:13 Туман 2 Скачать торрент  

Первый гуд,второй редкое дерьмо))pb.wtf



    Дорогой пользователь! Огромная просьба, поблагодарите релизера, оцените раздачу и оставьте свои комментарий, если Вы скачали Туман 2 через торрент бесплатно! Внесите свою лепту в развитие PiratBit!
    Комментировать посты могут только пользователи прошедшие не сложную регистрацию
    Показать сообщения:    

    Туман 2 через торрент
    Скачать бесплатно Туман 2
    Туман 2 скачать торрент
    Туман 2 смотреть онлайн
    Cкачать фильм Туман 2 бесплатно
    Туман 2 скачать торрент в хорошем качестве
    Туман 2 смотреть онлайн бесплатно в хорошем качестве


    Вы не можете начинать темы
    Вы не можете отвечать на сообщения
    Вы не можете редактировать свои сообщения
    Вы не можете удалять свои сообщения
    Вы не можете голосовать в опросах
    Вы не можете прикреплять файлы к сообщениям
    Вы можете скачивать файлы